<?xml version="1.0" standalone="no"?>
<!DOCTYPE svg PUBLIC "-//W3C//DTD SVG 1.1//EN" "http://www.w3.org/Graphics/SVG/1.1/DTD/svg11.dtd" >
<svg xmlns="http://www.w3.org/2000/svg">
<metadata>
<json>
{
	"version": "Version 0.0",
	"fontFamily": "icomoon",
	"fontId": "icomoon",
	"psName": "icomoon",
	"subFamily": "Regular",
	"fullName": "icomoon",
	"description": "Generated by IcoMoon"
}
</json>
</metadata>
<defs>
<font id="icomoon" horiz-adv-x="1024">
<font-face units-per-em="1024" ascent="960" descent="-64" />
<missing-glyph horiz-adv-x="1024" />
<glyph unicode="&#x20;" d="" horiz-adv-x="512" />
<glyph unicode="&#xe600;" d="M661.333-64c-11.797 0-21.333 9.536-21.333 21.333v981.333c0 11.797 9.536 21.333 21.333 21.333s21.333-9.536 21.333-21.333v-981.333c0-11.797-9.536-21.333-21.333-21.333zM789.333 298.667h-128c-11.797 0-21.333 9.536-21.333 21.333s9.536 21.333 21.333 21.333h106.581c-2.837 358.443-76.48 568.747-106.965 576.043-11.776 0-21.141 9.515-21.141 21.312 0 11.776 9.728 21.312 21.525 21.312 89.344 0 149.333-330.923 149.333-640 0-11.797-9.536-21.333-21.333-21.333zM362.667 576c-82.325 0-149.333 67.008-149.333 149.333v213.333c0 11.797 9.536 21.333 21.333 21.333s21.333-9.536 21.333-21.333v-213.333c0-58.816 47.851-106.667 106.667-106.667s106.667 47.851 106.667 106.667v213.333c0 11.797 9.536 21.333 21.333 21.333s21.333-9.536 21.333-21.333v-213.333c0-82.325-67.008-149.333-149.333-149.333zM362.667-64c-11.797 0-21.333 9.536-21.333 21.333v981.333c0 11.797 9.536 21.333 21.333 21.333s21.333-9.536 21.333-21.333v-981.333c0-11.797-9.536-21.333-21.333-21.333z" />
<glyph unicode="&#xe601;" d="M767.552 192h-511.104c-6.699 0-13.013 3.136-17.045 8.491-44.971 59.755-68.736 130.603-68.736 204.843 0 188.203 153.131 341.333 341.333 341.333s341.333-153.131 341.333-341.333c0-74.24-23.765-145.088-68.736-204.843-4.011-5.355-10.325-8.491-17.045-8.491zM267.307 234.667h489.387c35.349 50.453 53.973 109.227 53.973 170.667 0 164.693-133.973 298.667-298.667 298.667s-298.667-133.973-298.667-298.667c0-61.44 18.624-120.213 53.973-170.667zM192 384c-47.808 0-128 22.165-128 170.667 0 52.501-30.784 64-42.667 64-11.797 0-21.333 9.536-21.333 21.333s9.536 21.333 21.333 21.333c33.003 0 85.333-28.949 85.333-106.667 0-128 64.235-128 85.333-128 11.797 0 21.333-9.536 21.333-21.333s-9.536-21.333-21.333-21.333zM874.667 298.667c-20.843 0-41.109 4.288-60.224 12.736-10.773 4.779-15.637 17.365-10.901 28.139 4.8 10.773 17.323 15.616 28.139 10.901 13.653-6.037 28.139-9.109 42.987-9.109 58.816 0 106.667 47.851 106.667 106.667s-47.851 106.667-106.667 106.667c-23.403 0-45.696-7.552-64.448-21.867-9.408-7.147-22.763-5.312-29.909 4.032-7.125 9.365-5.312 22.763 4.032 29.909 26.261 20.011 57.515 30.592 90.325 30.592 82.325 0 149.333-67.008 149.333-149.333s-67.008-149.333-149.333-149.333zM768 576h-512c-11.797 0-21.333 9.536-21.333 21.333s9.536 21.333 21.333 21.333h512c11.797 0 21.333-9.536 21.333-21.333s-9.536-21.333-21.333-21.333zM512 704c-47.061 0-85.333 38.272-85.333 85.333s38.272 85.333 85.333 85.333 85.333-38.272 85.333-85.333-38.272-85.333-85.333-85.333zM512 832c-23.531 0-42.667-19.136-42.667-42.667s19.136-42.667 42.667-42.667 42.667 19.136 42.667 42.667-19.136 42.667-42.667 42.667zM917.333 106.667h-810.667c-11.797 0-21.333 9.536-21.333 21.333s9.536 21.333 21.333 21.333h810.667c11.797 0 21.333-9.536 21.333-21.333s-9.536-21.333-21.333-21.333zM213.333 42.667c-11.797 0-21.333 9.536-21.333 21.333v64c0 11.797 9.536 21.333 21.333 21.333s21.333-9.536 21.333-21.333v-64c0-11.797-9.536-21.333-21.333-21.333zM853.333 42.667c-11.797 0-21.333 9.536-21.333 21.333v64c0 11.797 9.536 21.333 21.333 21.333s21.333-9.536 21.333-21.333v-64c0-11.797-9.536-21.333-21.333-21.333z" />
<glyph unicode="&#xe602;" d="M704 192h-384c-11.797 0-21.333 9.536-21.333 21.333v533.333c0 117.632 95.701 213.333 213.333 213.333s213.333-95.701 213.333-213.333v-533.333c0-11.797-9.536-21.333-21.333-21.333zM341.333 234.667h341.333v512c0 94.101-76.565 170.667-170.667 170.667s-170.667-76.565-170.667-170.667v-512zM512-64c-11.797 0-21.333 9.536-21.333 21.333v256c0 11.797 9.536 21.333 21.333 21.333s21.333-9.536 21.333-21.333v-256c0-11.797-9.536-21.333-21.333-21.333zM618.667 426.667c-35.285 0-64 28.715-64 64v170.667c0 11.797 9.536 21.333 21.333 21.333s21.333-9.536 21.333-21.333v-170.667c0-11.776 9.557-21.333 21.333-21.333 11.797 0 21.333-9.536 21.333-21.333s-9.536-21.333-21.333-21.333zM448 597.333c-35.285 0-64 28.715-64 64v85.333c0 11.797 9.536 21.333 21.333 21.333s21.333-9.536 21.333-21.333v-85.333c0-11.776 9.557-21.333 21.333-21.333s21.333 9.557 21.333 21.333c0 11.797 9.536 21.333 21.333 21.333s21.333-9.536 21.333-21.333c0-35.285-28.715-64-64-64zM576 640c-11.797 0-21.333 9.536-21.333 21.333 0 11.776-9.557 21.333-21.333 21.333s-21.333-9.557-21.333-21.333c0-11.797-9.536-21.333-21.333-21.333s-21.333 9.536-21.333 21.333c0 35.285 28.715 64 64 64s64-28.715 64-64c0-11.797-9.536-21.333-21.333-21.333z" />
<glyph unicode="&#xe603;" d="M180.117 94.763c-5.461 0-10.944 2.091-15.104 6.272-24.896 24.96-24.896 65.557 0 90.517 25.024 24.917 65.643 24.896 90.539-0.021 8.32-8.32 21.867-8.299 30.187 0.021 8.299 8.299 8.299 21.845-0.021 30.165-12.096 12.075-18.752 28.16-18.752 45.269 0 17.109 6.656 33.173 18.773 45.248 24.107 24.128 66.304 24.149 90.475-0.021 8.043-8.043 22.101-8.085 30.165 0 8.32 8.32 8.32 21.845 0 30.165-24.917 24.96-24.917 65.557 0 90.517 24.149 24.171 66.325 24.192 90.517 0.021 4.075-4.032 9.429-6.251 15.104-6.251 0 0 0 0 0 0 5.696 0 11.051 2.219 15.083 6.251 4.032 4.032 6.251 9.365 6.251 15.083 0 5.696-2.219 11.051-6.251 15.083-12.096 12.075-18.773 28.16-18.773 45.291 0 17.088 6.677 33.152 18.773 45.205 12.075 12.075 28.16 18.752 45.248 18.752 0.021 0 0.021 0 0.043 0 17.088-0.021 33.152-6.677 45.227-18.795 8.32-8.277 21.867-8.277 30.187 0.043s8.32 21.845 0 30.187c-12.075 12.053-18.731 28.139-18.731 45.248 0 17.088 6.656 33.173 18.752 45.248 24.149 24.171 66.304 24.192 90.496 0.021 8.341-8.363 21.867-8.299 30.187-0.021 4.032 4.032 6.251 9.387 6.251 15.083 0 5.696-2.219 11.029-6.251 15.040-24.939 25.003-24.939 65.6-0.021 90.56 25.024 24.917 65.621 24.917 90.539-0.021 8.32-8.363 8.32-21.845-0.021-30.187-8.341-8.32-21.845-8.299-30.165 0.021-8.32 8.341-21.845 8.341-30.208 0-8.277-8.299-8.277-21.845 0.043-30.208 12.053-12.032 18.731-28.075 18.752-45.184 0-17.088-6.656-33.173-18.752-45.269-24.171-24.171-66.325-24.171-90.496 0-8.043 8.021-22.101 8.107-30.165 0-4.032-4.032-6.251-9.387-6.251-15.083 0-5.717 2.219-11.051 6.229-15.061 24.96-25.003 24.96-65.6 0-90.539-24.939-24.96-65.557-24.96-90.517-0.043-4.053 4.053-9.387 6.293-15.083 6.293 0 0 0 0-0.021 0-5.696 0-11.051-2.219-15.104-6.272-4.032-4.011-6.251-9.344-6.251-15.040 0-5.717 2.219-11.072 6.251-15.083 12.096-12.096 18.752-28.181 18.752-45.269 0-17.109-6.656-33.195-18.752-45.269-12.075-12.075-28.139-18.731-45.227-18.731 0 0 0 0-0.021 0-17.088 0-33.152 6.656-45.248 18.752-8.043 8.043-22.123 8.085-30.165 0-8.32-8.32-8.32-21.867 0-30.187 12.075-12.075 18.731-28.16 18.731-45.248s-6.656-33.173-18.752-45.248c-24.149-24.171-66.325-24.171-90.496 0-8.043 8.043-22.101 8.085-30.165 0-4.053-4.032-6.272-9.365-6.272-15.061 0-5.717 2.219-11.072 6.251-15.083 24.939-24.981 24.939-65.579 0.021-90.539-24.981-24.896-65.579-24.917-90.517-0.021-8.341 8.384-21.867 8.363-30.229 0.021-8.277-8.299-8.277-21.845 0.043-30.208 8.32-8.341 8.299-21.845-0.043-30.165-4.117-4.16-9.579-6.251-15.040-6.251zM210.304-3.051c-39.893 0-77.397 15.531-105.6 43.733-58.219 58.219-58.219 152.96 0 211.179l603.392 603.413c28.203 28.203 65.707 43.733 105.6 43.733s77.397-15.531 105.6-43.733c58.219-58.219 58.219-152.96 0-211.179l-603.392-603.413c-28.203-28.203-65.707-43.733-105.6-43.733zM813.696 856.341c-28.501 0-55.275-11.093-75.435-31.232l-603.392-603.392c-41.579-41.579-41.579-109.269 0-150.848 20.139-20.139 46.933-31.232 75.435-31.232s55.275 11.093 75.435 31.232l603.392 603.392c41.579 41.579 41.579 109.269 0 150.848-20.16 20.139-46.933 31.232-75.435 31.232zM378.368-60.843c-0.384 0-0.768 0-1.152 0-53.931 0.363-105.408 24.107-148.843 68.672l30.571 29.781c35.285-36.224 76.267-55.509 118.549-55.787 38.528-0.533 76.288 15.701 104.341 43.776l452.544 452.544c47.787 47.787 73.237 135.147-12.352 224l30.72 29.589c100.16-103.979 78.101-217.429 11.776-283.755l-452.523-452.544c-35.797-35.797-84.437-56.277-133.632-56.277zM86.635 157.845c-5.547 0-11.072 2.155-15.253 6.421-100.437 102.677-76.565 219.072-11.925 283.712l452.565 452.565c79.104 79.083 185.28 75.072 283.989-10.773 8.896-7.723 9.835-21.205 2.112-30.101s-21.205-9.792-30.101-2.112c-81.109 70.549-163.435 75.2-225.835 12.821l-452.565-452.565c-51.968-51.989-68.331-141.291 12.245-223.701 8.235-8.427 8.085-21.931-0.341-30.165-4.139-4.075-9.515-6.101-14.891-6.101z" />
<glyph unicode="&#xe604;" d="M661.333 448c-11.776 0-21.333 9.536-21.333 21.333v426.667c0 11.797 9.557 21.333 21.333 21.333 129.387 0 234.667-105.28 234.667-234.667s-105.28-234.667-234.667-234.667zM682.667 873.472v-381.632c95.872 10.645 170.667 92.139 170.667 190.805s-74.795 180.181-170.667 190.827zM661.333 874.667c-11.776 0-21.333 9.536-21.333 21.333v42.667c0 11.797 9.557 21.333 21.333 21.333s21.333-9.536 21.333-21.333v-42.667c0-11.797-9.557-21.333-21.333-21.333zM448 362.667h-85.333c-11.776 0-21.333 9.536-21.333 21.333s9.557 21.333 21.333 21.333h85.333c11.776 0 21.333-9.536 21.333-21.333s-9.557-21.333-21.333-21.333zM576 533.333h-384c-11.776 0-21.333 9.536-21.333 21.333s9.557 21.333 21.333 21.333h384c11.776 0 21.333-9.536 21.333-21.333s-9.557-21.333-21.333-21.333zM256.021-64c-1.067 0-2.155 0.085-3.243 0.256-11.648 1.771-19.648 12.672-17.877 24.32l42.667 279.232c1.792 11.627 12.715 19.541 24.32 17.856 11.648-1.771 19.648-12.672 17.877-24.32l-42.667-279.232c-1.621-10.56-10.709-18.112-21.077-18.112zM533.333-64c-47.061 0-85.333 38.272-85.333 85.333s38.272 85.333 85.333 85.333 85.333-38.272 85.333-85.333-38.272-85.333-85.333-85.333zM533.333 64c-23.531 0-42.667-19.136-42.667-42.667s19.136-42.667 42.667-42.667 42.667 19.136 42.667 42.667-19.136 42.667-42.667 42.667zM518.357 62.229c-11.371 0-20.821 8.981-21.312 20.437l-6.379 153.003c-0.491 11.776 8.661 21.739 20.437 22.208 11.968 0.789 21.696-8.661 22.208-20.416l6.379-153.003c0.491-11.776-8.661-21.739-20.437-22.208-0.299-0.021-0.597-0.021-0.896-0.021zM282.261 149.333h234.411v-42.667h-234.411v42.667zM405.333 192c-152.917 0-277.333 124.416-277.333 277.333 0 11.797 9.557 21.333 21.333 21.333h512c11.776 0 21.333-9.536 21.333-21.333 0-152.917-124.416-277.333-277.333-277.333zM171.627 448c10.816-119.445 111.488-213.333 233.707-213.333s222.891 93.888 233.707 213.333h-467.413z" />
<glyph unicode="&#xe605;" d="M768-64h-512c-11.136 0-20.416 8.576-21.269 19.691l-41.237 536.128c-84.8 9.856-150.827 82.112-150.827 169.515 0 94.272 78.464 173.888 171.349 173.888 19.413 0 38.464-3.776 56.235-11.093 29.952 82.347 123.115 135.872 241.749 135.872 111.445 0 189.397-45.056 237.653-137.6 18.923 8.448 39.424 12.843 60.331 12.843 92.885-0.021 171.349-79.637 171.349-173.909 0-87.403-66.027-159.659-150.827-169.515l-41.237-536.128c-0.853-11.115-10.133-19.691-21.269-19.691zM275.755-21.333h472.469l41.152 534.976c0.875 11.115 10.155 19.691 21.291 19.691 70.592 0 128 57.408 128 128 0 77.333-67.819 131.221-128.683 131.221-20.949 0-40.512-5.845-58.112-17.429-5.227-3.435-11.755-4.416-17.749-2.624-6.016 1.771-10.944 6.080-13.483 11.84-40.149 90.731-106.432 132.992-208.64 132.992-110.016 0-193.259-51.52-207.147-128.192-1.28-7.040-5.995-12.971-12.587-15.787-6.571-2.859-14.144-2.176-20.117 1.771-17.6 11.584-37.163 17.429-58.112 17.429-60.885 0-128.704-53.888-128.704-131.221 0-70.592 57.408-128 128-128 11.136 0 20.416-8.576 21.269-19.691l41.152-534.976zM781.333 106.667h-538.667c-11.776 0-21.333 9.536-21.333 21.333s9.557 21.333 21.333 21.333h538.667c11.776 0 21.333-9.536 21.333-21.333s-9.557-21.333-21.333-21.333zM405.333 106.667c-11.776 0-21.333 9.536-21.333 21.333v170.667c0 11.797 9.557 21.333 21.333 21.333s21.333-9.536 21.333-21.333v-170.667c0-11.797-9.557-21.333-21.333-21.333zM512 106.667c-11.776 0-21.333 9.536-21.333 21.333v213.333c0 11.797 9.557 21.333 21.333 21.333s21.333-9.536 21.333-21.333v-213.333c0-11.797-9.557-21.333-21.333-21.333zM618.667 106.667c-11.776 0-21.333 9.536-21.333 21.333v170.667c0 11.797 9.557 21.333 21.333 21.333s21.333-9.536 21.333-21.333v-170.667c0-11.797-9.557-21.333-21.333-21.333z" />
<glyph unicode="&#xe606;" d="M746.667-64h-512c-11.264 0-20.587 8.747-21.291 20.011l-42.667 682.667c-0.363 5.867 1.707 11.648 5.739 15.936s9.664 6.72 15.552 6.72h597.333c5.888 0 11.52-2.432 15.552-6.72s6.101-10.069 5.739-15.936l-42.667-682.667c-0.704-11.264-10.027-20.011-21.291-20.011zM254.699-21.333h471.915l40 640h-551.915l40-640zM832 618.667h-682.667c-11.776 0-21.333 9.536-21.333 21.333v170.667c0 11.797 9.557 21.333 21.333 21.333h682.667c11.776 0 21.333-9.536 21.333-21.333v-170.667c0-11.797-9.557-21.333-21.333-21.333zM170.667 661.333h640v128h-640v-128zM789.76 789.333c-0.128 0.021-0.277 0-0.427 0h-597.333c-6.848 0-13.291 3.285-17.301 8.853s-5.099 12.736-2.944 19.221l42.667 128c2.923 8.725 11.051 14.592 20.245 14.592h512c9.195 0 17.323-5.867 20.245-14.592l41.387-124.181c1.771-3.115 2.795-6.72 2.795-10.56 0-11.797-9.557-21.333-21.333-21.333zM221.589 832h538.155l-28.437 85.333h-481.259l-28.459-85.333zM778.667 448h-576c-11.776 0-21.333 9.536-21.333 21.333s9.557 21.333 21.333 21.333h576c11.776 0 21.333-9.536 21.333-21.333s-9.557-21.333-21.333-21.333zM218.667 234.667h544v-42.667h-544v42.667zM554.667 320h-128c-11.776 0-21.333 9.536-21.333 21.333s9.557 21.333 21.333 21.333h128c11.776 0 21.333-9.536 21.333-21.333s-9.557-21.333-21.333-21.333z" />
<glyph unicode="&#xe607;" d="M960-64h-938.667c-11.776 0-21.333 9.536-21.333 21.333v128c0 11.797 9.557 21.333 21.333 21.333h405.333v384h-277.333c-11.776 0-21.333 9.536-21.333 21.333v426.667c0 11.797 9.557 21.333 21.333 21.333h789.333c47.061 0 85.333-38.272 85.333-85.333v-469.333l-42.752-450.027c-1.045-10.944-10.24-19.307-21.248-19.307zM42.667-21.333h897.941l40.832 428.693-0.107 467.307c0 23.531-19.136 42.667-42.667 42.667h-768v-384h277.333c11.776 0 21.333-9.536 21.333-21.333v-426.667c0-11.797-9.557-21.333-21.333-21.333h-405.333v-85.333zM810.667-42.667h-42.667v469.333c0 11.797 9.557 21.333 21.333 21.333h213.333v-42.667h-192v-448zM1002.667 704h-256c-11.776 0-21.333 9.536-21.333 21.333s9.557 21.333 21.333 21.333h256c11.776 0 21.333-9.536 21.333-21.333s-9.557-21.333-21.333-21.333zM1002.667 618.667h-256c-11.776 0-21.333 9.536-21.333 21.333s9.557 21.333 21.333 21.333h256c11.776 0 21.333-9.536 21.333-21.333s-9.557-21.333-21.333-21.333zM1002.667 533.333h-256c-11.776 0-21.333 9.536-21.333 21.333s9.557 21.333 21.333 21.333h256c11.776 0 21.333-9.536 21.333-21.333s-9.557-21.333-21.333-21.333zM362.667 256h-170.667c-11.776 0-21.333 9.536-21.333 21.333v85.333c0 11.797 9.557 21.333 21.333 21.333h170.667c11.776 0 21.333-9.536 21.333-21.333v-85.333c0-11.797-9.557-21.333-21.333-21.333zM213.333 298.667h128v42.667h-128v-42.667zM192 298.667h-170.667c-11.776 0-21.333 9.536-21.333 21.333s9.557 21.333 21.333 21.333h170.667c11.776 0 21.333-9.536 21.333-21.333s-9.557-21.333-21.333-21.333zM298.667 512h42.667v-149.333h-42.667v149.333zM213.333 512h42.667v-149.333h-42.667v149.333zM298.667 704c-47.061 0-85.333 38.272-85.333 85.333s38.272 85.333 85.333 85.333 85.333-38.272 85.333-85.333-38.272-85.333-85.333-85.333zM298.667 832c-23.531 0-42.667-19.136-42.667-42.667s19.136-42.667 42.667-42.667 42.667 19.136 42.667 42.667-19.136 42.667-42.667 42.667zM277.333 213.333c-11.776 0-21.333 9.536-21.333 21.333v42.667c0 11.797 9.557 21.333 21.333 21.333s21.333-9.536 21.333-21.333v-42.667c0-11.797-9.557-21.333-21.333-21.333z" />
<glyph unicode="&#xe608;" d="M696.896 483.563c-129.387 0-234.667 105.28-234.667 234.667s105.28 234.667 234.667 234.667 234.667-105.28 234.667-234.667-105.28-234.667-234.667-234.667zM696.896 910.229c-105.877 0-192-86.123-192-192s86.123-192 192-192 192 86.123 192 192-86.123 192-192 192zM995.563 760.896c-11.797 0-21.333-9.557-21.333-21.333s9.536-21.333 21.333-21.333c11.797 0 21.333 9.557 21.333 21.333 0 11.776-9.557 21.333-21.333 21.333v0zM995.563-28.437c-11.797 0-21.333 9.536-21.333 21.333v682.667c0 11.797 9.536 21.333 21.333 21.333s21.333-9.536 21.333-21.333v-682.667c0-11.797-9.536-21.333-21.333-21.333zM198.187-36.565c-101.227 0-175.787 63.211-204.608 173.397-2.624 10.048 2.347 20.523 11.819 24.811 9.451 4.267 20.608 1.173 26.453-7.403 19.456-28.544 48.576-44.885 79.957-44.907v0c19.819 0 37.973 6.827 51.115 19.221 14.379 13.525 21.952 33.003 21.952 56.341 0 89.451 71.125 137.728 138.048 137.728 28.395 0 54.464-8.363 75.285-23.829 20.821 15.488 46.869 23.829 75.285 23.829 66.923 0 138.048-48.277 138.048-137.728 0-52.181 36.715-75.563 73.088-75.563 31.36 0 60.501 16.384 79.957 44.907 5.845 8.555 17.024 11.669 26.453 7.403 9.451-4.288 14.443-14.763 11.819-24.811-28.821-110.187-103.403-173.376-204.629-173.397-77.312 0-155.989 39.040-200.021 96.32-44.011-57.28-122.688-96.299-200.021-96.32v0zM398.229 120.896c8.085 0 15.467-4.565 19.093-11.797 29.355-58.709 107.136-102.997 180.928-102.997 35.648 0 92.309 10.496 131.755 68.757-14.507-5.355-29.803-8.192-45.355-8.192-57.515 0-115.755 40.619-115.755 118.229 0 62.421-47.979 95.061-95.381 95.061-24.043 0-45.205-8.576-59.627-24.192-8.043-8.789-23.253-8.768-31.339-0.021-14.421 15.595-35.584 24.213-59.627 24.213-47.403 0-95.381-32.64-95.381-95.061 0-35.371-12.224-65.6-35.371-87.403-21.077-19.883-49.643-30.827-80.384-30.827 0 0 0 0-0.021 0-15.531 0.021-30.827 2.837-45.333 8.192 39.445-58.24 96.085-68.757 131.755-68.757 73.792 0.021 151.573 44.288 180.928 102.997 3.648 7.232 11.029 11.797 19.115 11.797zM696.896 568.896c-11.797 0-21.333 9.536-21.333 21.333s9.536 21.333 21.333 21.333c58.816 0 106.667 47.851 106.667 106.667 0 11.797 9.536 21.333 21.333 21.333s21.333-9.536 21.333-21.333c0-82.325-67.008-149.333-149.333-149.333z" />
<glyph unicode="&#xe609;" d="M163.563 704h-64c-47.061 0-85.333 38.272-85.333 85.333v42.667c0 70.592 57.408 128 128 128h106.667c11.797 0 21.333-9.536 21.333-21.333v-128c0-58.816-47.851-106.667-106.667-106.667zM142.229 917.333c-47.061 0-85.333-38.272-85.333-85.333v-42.667c0-23.531 19.136-42.667 42.667-42.667h64c35.285 0 64 28.715 64 64v106.667h-85.333zM398.229 704h-64c-58.816 0-106.667 47.851-106.667 106.667v128c0 11.797 9.536 21.333 21.333 21.333h106.667c70.592 0 128-57.408 128-128v-42.667c0-47.061-38.272-85.333-85.333-85.333zM270.229 917.333v-106.667c0-35.285 28.715-64 64-64h64c23.531 0 42.667 19.136 42.667 42.667v42.667c0 47.061-38.272 85.333-85.333 85.333h-85.333zM14.229 789.333c-11.797 0-21.333 9.536-21.333 21.333v42.667c0 11.797 9.536 21.333 21.333 21.333s21.333-9.536 21.333-21.333v-42.667c0-11.797-9.536-21.333-21.333-21.333zM483.563 789.333c-11.797 0-21.333 9.536-21.333 21.333v42.667c0 11.797 9.536 21.333 21.333 21.333s21.333-9.536 21.333-21.333v-42.667c0-11.797-9.536-21.333-21.333-21.333zM248.896 490.667c-47.061 0-85.333 38.272-85.333 85.333s38.272 85.333 85.333 85.333 85.333-38.272 85.333-85.333-38.272-85.333-85.333-85.333zM248.896 618.667c-23.531 0-42.667-19.136-42.667-42.667s19.136-42.667 42.667-42.667 42.667 19.136 42.667 42.667-19.136 42.667-42.667 42.667zM931.563-64h-128c-47.061 0-85.333 38.272-85.333 85.333v405.333c0 82.325 67.008 149.333 149.333 149.333s149.333-67.008 149.333-149.333v-405.333c0-47.061-38.272-85.333-85.333-85.333zM867.563 533.333c-58.816 0-106.667-47.851-106.667-106.667v-405.333c0-23.531 19.136-42.667 42.667-42.667h128c23.531 0 42.667 19.136 42.667 42.667v405.333c0 58.816-47.851 106.667-106.667 106.667zM910.229 533.333h-85.333c-11.797 0-21.333 9.536-21.333 21.333v85.333c0 11.797 9.536 21.333 21.333 21.333h85.333c11.797 0 21.333-9.536 21.333-21.333v-85.333c0-11.797-9.536-21.333-21.333-21.333zM846.229 576h42.667v42.667h-42.667v-42.667zM995.563 21.333h-256c-11.797 0-21.333 9.536-21.333 21.333s9.536 21.333 21.333 21.333h256c11.797 0 21.333-9.536 21.333-21.333s-9.536-21.333-21.333-21.333zM995.563 405.333h-256c-11.797 0-21.333 9.536-21.333 21.333s9.536 21.333 21.333 21.333h256c11.797 0 21.333-9.536 21.333-21.333s-9.536-21.333-21.333-21.333zM302.229-64c-170.56 0-309.333 138.773-309.333 309.333v160c0 105.877 86.123 192 192 192 11.797 0 21.333-9.536 21.333-21.333s-9.536-21.333-21.333-21.333c-82.325 0-149.333-67.008-149.333-149.333v-160c0-147.051 119.616-266.667 266.667-266.667s266.667 119.616 266.667 266.667v362.667c0 76.459 62.208 138.667 138.667 138.667h74.667c58.816 0 106.667-47.851 106.667-106.667 0-11.797-9.536-21.333-21.333-21.333s-21.333 9.536-21.333 21.333c0 35.285-28.715 64-64 64h-74.667c-52.928 0-96-43.072-96-96v-362.667c0-170.56-138.773-309.333-309.333-309.333z" />
<glyph unicode="&#xe60a;" d="M533.333 320c-5.461 0-10.923 2.091-15.083 6.251l-341.333 341.333c-6.101 6.101-7.936 15.275-4.629 23.253 3.285 7.979 11.093 13.163 19.712 13.163h682.667c8.619 0 16.427-5.184 19.712-13.163 3.307-7.979 1.472-17.152-4.629-23.253l-341.333-341.333c-4.16-4.16-9.621-6.251-15.083-6.251zM243.499 661.333l289.835-289.835 289.835 289.835h-579.669zM533.333-64c-11.797 0-21.333 9.536-21.333 21.333v384c0 11.797 9.536 21.333 21.333 21.333s21.333-9.536 21.333-21.333v-384c0-11.797-9.536-21.333-21.333-21.333zM704-64h-341.333c-11.797 0-21.333 9.536-21.333 21.333s9.536 21.333 21.333 21.333h341.333c11.797 0 21.333-9.536 21.333-21.333s-9.536-21.333-21.333-21.333zM304.917 667.584l-111.829 111.829c-20.16 20.139-46.933 31.253-75.435 31.253h-117.653v42.667h117.653c39.893 0 77.397-15.552 105.6-43.755l111.829-111.829-30.165-30.165zM874.667 576c-27.541 0-54.443 7.552-77.824 21.824l22.251 36.416c16.683-10.176 35.883-15.573 55.573-15.573 58.816 0 106.667 47.851 106.667 106.667s-47.851 106.667-106.667 106.667-106.667-47.851-106.667-106.667c0-12.181 2.027-24.128 6.016-35.435l-40.213-14.208c-5.611 15.872-8.469 32.576-8.469 49.643 0 82.325 67.008 149.333 149.333 149.333s149.333-67.008 149.333-149.333-67.008-149.333-149.333-149.333z" />
<glyph unicode="&#xe60b;" d="M810.667 277.333h-597.333c-117.632 0-213.333 95.701-213.333 213.333 0 11.797 9.536 21.333 21.333 21.333s21.333-9.536 21.333-21.333c0-94.101 76.565-170.667 170.667-170.667h597.333c94.101 0 170.667 76.565 170.667 170.667 0 11.797 9.536 21.333 21.333 21.333s21.333-9.536 21.333-21.333c0-117.632-95.701-213.333-213.333-213.333zM832 405.333h-640c-11.797 0-21.333 9.536-21.333 21.333s9.536 21.333 21.333 21.333h640c11.797 0 21.333-9.536 21.333-21.333s-9.536-21.333-21.333-21.333zM853.333 299.84h-42.667v318.827c0 164.693-133.973 298.667-298.667 298.667s-298.667-133.973-298.667-298.667v-318.827h-42.667v318.827c0 188.203 153.131 341.333 341.333 341.333s341.333-153.131 341.333-341.333v-318.827zM576 21.333h-128l-42.667-85.333h213.333l-42.667 85.333z" />
<glyph unicode="&#xe60c;" d="M768 448h-85.333v42.667h85.333c11.776 0 21.333 9.557 21.333 21.333v256c0 35.285-28.715 64-64 64h-469.333c-35.285 0-64-28.715-64-64v-256c0-11.776 9.557-21.333 21.333-21.333h85.333v-42.667h-85.333c-35.285 0-64 28.715-64 64v256c0 58.816 47.851 106.667 106.667 106.667h469.333c58.816 0 106.667-47.851 106.667-106.667v-256c0-35.285-28.715-64-64-64zM704 832h-128c-11.797 0-21.333 9.536-21.333 21.333v85.333c0 11.797 9.536 21.333 21.333 21.333h128c11.797 0 21.333-9.536 21.333-21.333v-85.333c0-11.797-9.536-21.333-21.333-21.333zM597.333 874.667h85.333v42.667h-85.333v-42.667zM405.333 832h-128c-11.797 0-21.333 9.536-21.333 21.333v85.333c0 11.797 9.536 21.333 21.333 21.333h128c11.797 0 21.333-9.536 21.333-21.333v-85.333c0-11.797-9.536-21.333-21.333-21.333zM298.667 874.667h85.333v42.667h-85.333v-42.667zM213.333 106.667h-128c-11.797 0-21.333 9.536-21.333 21.333v64c0 47.061 38.272 85.333 85.333 85.333h64c11.797 0 21.333-9.536 21.333-21.333v-128c0-11.797-9.536-21.333-21.333-21.333zM106.667 149.333h85.333v85.333h-42.667c-23.531 0-42.667-19.136-42.667-42.667v-42.667zM213.333-64h-85.333c-35.285 0-64 28.715-64 64v128c0 11.797 9.536 21.333 21.333 21.333h128c11.797 0 21.333-9.536 21.333-21.333v-170.667c0-11.797-9.536-21.333-21.333-21.333zM106.667 106.667v-106.667c0-11.776 9.557-21.333 21.333-21.333h64v128h-85.333zM896 106.667h-128c-11.797 0-21.333 9.536-21.333 21.333v128c0 11.797 9.536 21.333 21.333 21.333h64c47.061 0 85.333-38.272 85.333-85.333v-64c0-11.797-9.536-21.333-21.333-21.333zM789.333 149.333h85.333v42.667c0 23.531-19.136 42.667-42.667 42.667h-42.667v-85.333zM853.333-64h-85.333c-11.797 0-21.333 9.536-21.333 21.333v170.667c0 11.797 9.536 21.333 21.333 21.333h128c11.797 0 21.333-9.536 21.333-21.333v-128c0-35.285-28.715-64-64-64zM789.333-21.333h64c11.776 0 21.333 9.557 21.333 21.333v106.667h-85.333v-128zM682.667 106.667h-384c-11.797 0-21.333 9.536-21.333 21.333v64c0 47.061 38.272 85.333 85.333 85.333h256c47.061 0 85.333-38.272 85.333-85.333v-64c0-11.797-9.536-21.333-21.333-21.333zM320 149.333h341.333v42.667c0 23.531-19.136 42.667-42.667 42.667h-256c-23.531 0-42.667-19.136-42.667-42.667v-42.667zM341.333 341.333c-35.285 0-64 28.715-64 64v106.667c0 35.285 28.715 64 64 64s64-28.715 64-64v-106.667c0-35.285-28.715-64-64-64zM341.333 533.333c-11.776 0-21.333-9.557-21.333-21.333v-106.667c0-11.776 9.557-21.333 21.333-21.333s21.333 9.557 21.333 21.333v106.667c0 11.776-9.557 21.333-21.333 21.333zM640 341.333c-35.285 0-64 28.715-64 64v106.667c0 35.285 28.715 64 64 64s64-28.715 64-64v-106.667c0-35.285-28.715-64-64-64zM640 533.333c-11.776 0-21.333-9.557-21.333-21.333v-106.667c0-11.776 9.557-21.333 21.333-21.333s21.333 9.557 21.333 21.333v106.667c0 11.776-9.557 21.333-21.333 21.333zM725.333 746.667h-469.333c-11.797 0-21.333 9.536-21.333 21.333s9.536 21.333 21.333 21.333h469.333c11.797 0 21.333-9.536 21.333-21.333s-9.536-21.333-21.333-21.333zM298.667 704c-11.797 0-21.333 9.536-21.333 21.333v42.667c0 11.797 9.536 21.333 21.333 21.333s21.333-9.536 21.333-21.333v-42.667c0-11.797-9.536-21.333-21.333-21.333zM384 64c-11.797 0-21.333 9.536-21.333 21.333v85.333c0 11.797 9.536 21.333 21.333 21.333s21.333-9.536 21.333-21.333v-85.333c0-11.797-9.536-21.333-21.333-21.333zM597.333 64c-11.797 0-21.333 9.536-21.333 21.333v85.333c0 11.797 9.536 21.333 21.333 21.333s21.333-9.536 21.333-21.333v-85.333c0-11.797-9.536-21.333-21.333-21.333zM384 490.667h213.333v-42.667h-213.333v42.667zM213.333 234.667c-11.797 0-21.333 9.536-21.333 21.333v213.333c0 11.797 9.536 21.333 21.333 21.333s21.333-9.536 21.333-21.333v-213.333c0-11.797-9.536-21.333-21.333-21.333zM768 234.667c-11.797 0-21.333 9.536-21.333 21.333v213.333c0 11.797 9.536 21.333 21.333 21.333s21.333-9.536 21.333-21.333v-213.333c0-11.797-9.536-21.333-21.333-21.333zM768-64h-554.667c-11.797 0-21.333 9.536-21.333 21.333s9.536 21.333 21.333 21.333h554.667c11.797 0 21.333-9.536 21.333-21.333s-9.536-21.333-21.333-21.333zM682.667-64c-11.797 0-21.333 9.536-21.333 21.333v149.333h-341.333v-149.333c0-11.797-9.536-21.333-21.333-21.333s-21.333 9.536-21.333 21.333v170.667c0 11.797 9.536 21.333 21.333 21.333h384c11.797 0 21.333-9.536 21.333-21.333v-170.667c0-11.797-9.536-21.333-21.333-21.333z" />
<glyph unicode="&#xe60d;" d="M810.688 362.667c-1.088 0-2.176 0.085-3.264 0.256-11.648 1.792-19.627 12.693-17.835 24.341l39.957 259.755c10.411 67.755-9.195 136.448-53.824 188.459-44.651 52.032-109.568 81.856-178.112 81.856h-171.2c-68.544 0-133.461-29.824-178.112-81.877-44.629-52.011-64.256-120.704-53.824-188.459l39.957-259.755c1.792-11.648-6.208-22.549-17.835-24.341-11.627-1.664-22.549 6.187-24.32 17.835l-39.979 259.755c-12.331 80.085 10.88 161.28 63.616 222.741 52.736 61.504 129.451 96.768 210.475 96.768h171.2c81.024 0 157.739-35.264 210.475-96.747 52.757-61.483 75.947-142.677 63.616-222.741l-39.957-259.755c-1.6-10.539-10.688-18.091-21.035-18.091zM256-64c-11.776 0-21.333 9.536-21.333 21.333v42.667c0 11.797 9.557 21.333 21.333 21.333s21.333-9.536 21.333-21.333v-42.667c0-11.797-9.557-21.333-21.333-21.333zM768-64c-11.776 0-21.333 9.536-21.333 21.333v42.667c0 11.797 9.557 21.333 21.333 21.333s21.333-9.536 21.333-21.333v-42.667c0-11.797-9.557-21.333-21.333-21.333zM789.333-21.333h-554.667c-82.347 0-149.333 67.008-149.333 149.333v85.333c0 12.928-7.723 24.512-19.648 29.504-39.915 16.619-65.685 55.296-65.685 98.496 0 58.816 47.851 106.667 106.667 106.667 94.101 0 170.667-76.565 170.667-170.667v-31.168c37.781 13.504 110.869 31.168 234.667 31.168s196.885-17.664 234.667-31.168v31.168c0 94.101 76.565 170.667 170.667 170.667 58.816 0 106.667-47.851 106.667-106.667 0-43.221-25.771-81.899-65.685-98.496-11.925-4.992-19.648-16.576-19.648-29.504v-85.333c0-82.325-66.987-149.333-149.333-149.333zM106.667 405.333c-35.285 0-64-28.715-64-64 0-25.941 15.467-49.152 39.424-59.115 27.883-11.605 45.909-38.656 45.909-68.885v-85.333c0-58.816 47.851-106.667 106.667-106.667h554.667c58.816 0 106.667 47.851 106.667 106.667v85.333c0 30.208 18.027 57.259 45.909 68.885 23.957 9.963 39.424 33.173 39.424 59.115 0 35.285-28.715 64-64 64-70.592 0-128-57.408-128-128v-103.851l-33.173 22.101c-0.405 0.277-63.616 39.083-244.16 39.083s-243.755-38.805-244.373-39.211l-32.768-20.843-0.192 102.72c0 70.592-57.408 128-128 128zM618.667 512c-5.461 0-10.923 2.091-15.083 6.251l-42.667 42.667c-8.341 8.341-8.341 21.824 0 30.165l42.667 42.667c8.341 8.341 21.824 8.341 30.165 0s8.341-21.824 0-30.165l-27.584-27.584 27.584-27.584c8.341-8.341 8.341-21.824 0-30.165-4.16-4.16-9.621-6.251-15.083-6.251zM405.333 512c-5.461 0-10.923 2.091-15.083 6.251-8.341 8.341-8.341 21.824 0 30.165l27.584 27.584-27.584 27.584c-8.341 8.341-8.341 21.824 0 30.165s21.824 8.341 30.165 0l42.667-42.667c8.341-8.341 8.341-21.824 0-30.165l-42.667-42.667c-4.16-4.16-9.621-6.251-15.083-6.251zM512 490.667c-47.061 0-85.333 38.272-85.333 85.333s38.272 85.333 85.333 85.333 85.333-38.272 85.333-85.333-38.272-85.333-85.333-85.333zM512 618.667c-23.531 0-42.667-19.136-42.667-42.667s19.136-42.667 42.667-42.667 42.667 19.136 42.667 42.667-19.136 42.667-42.667 42.667z" />
<glyph unicode="&#xe60e;" d="M533.291-64c-11.776 0-21.333 9.536-21.333 21.333v170.667c0 11.797 9.557 21.333 21.333 21.333s21.333-9.536 21.333-21.333v-170.667c0-11.797-9.557-21.333-21.333-21.333zM682.624 917.333h-298.667c-11.776 0-21.333 9.536-21.333 21.333s9.557 21.333 21.333 21.333h298.667c11.776 0 21.333-9.536 21.333-21.333s-9.557-21.333-21.333-21.333zM469.291 576h-85.333c-11.776 0-21.333 9.536-21.333 21.333s9.557 21.333 21.333 21.333h85.333c11.776 0 21.333-9.536 21.333-21.333s-9.557-21.333-21.333-21.333zM469.291 490.667h-85.333c-11.776 0-21.333 9.536-21.333 21.333s9.557 21.333 21.333 21.333h85.333c11.776 0 21.333-9.536 21.333-21.333s-9.557-21.333-21.333-21.333zM469.291 405.333h-85.333c-11.776 0-21.333 9.536-21.333 21.333s9.557 21.333 21.333 21.333h85.333c11.776 0 21.333-9.536 21.333-21.333s-9.557-21.333-21.333-21.333zM810.624 704h-554.667c-11.776 0-21.333 9.536-21.333 21.333s9.557 21.333 21.333 21.333h554.667c11.776 0 21.333-9.536 21.333-21.333s-9.557-21.333-21.333-21.333zM447.957 938.667h42.667v-213.333h-42.667v213.333zM575.957 938.667h42.667v-213.333h-42.667v213.333zM533.291 106.667c-94.101 0-170.667 86.123-170.667 192v426.667h42.667v-426.667c0-82.325 57.408-149.333 128-149.333s128 67.008 128 149.333v426.667h42.667v-426.667c0-105.877-76.565-192-170.667-192z" />
<glyph unicode="&#xe60f;" d="M1002.048 320c-9.707 0-18.325 6.635-20.693 16.213-0.811 3.221-18.539 69.12-85.397 69.12-70.741 0-108.565-72.853-108.949-73.6-3.627-7.168-11.008-11.712-19.051-11.712-0.021 0-0.043 0-0.064 0-8.043 0.043-15.424 4.565-19.029 11.776-0.341 0.683-38.165 73.536-108.907 73.536s-108.565-72.853-108.949-73.6c-4.032-7.915-12.693-12.437-21.419-11.563-8.853 1.003-16.171 7.36-18.325 16-0.725 2.667-19.435 69.163-107.307 69.163-88.981 0-107.136-68.48-107.307-69.163-2.389-9.515-10.901-16.171-20.693-16.171s-18.325 6.656-20.693 16.171c-0.725 2.667-19.435 69.163-107.307 69.163-29.717 0-52.075-7.36-66.496-21.845-17.941-18.069-18.283-41.771-18.283-42.005 0.064-11.627-9.173-21.184-20.8-21.483-11.52-0.085-21.333 8.768-21.845 20.395-6.208 140.779 44.011 274.347 141.44 376.171 97.536 101.952 228.928 158.101 369.984 158.101s272.448-56.149 369.984-158.101c97.429-101.803 147.648-235.413 141.44-376.171-0.469-10.603-8.661-19.264-19.243-20.288-0.683-0.064-1.387-0.107-2.091-0.107zM639.957 448c63.275 0 105.579-39.339 128-67.968 22.421 28.629 64.725 67.968 128 67.968 35.2 0 62.187-12.629 82.155-29.781-11.627 100.587-55.424 194.091-126.976 268.864-89.451 93.44-209.899 144.917-339.179 144.917-129.28 0-249.749-51.477-339.179-144.939-69.589-72.725-112.896-163.136-125.931-260.587 21.163 14.293 48.341 21.525 81.109 21.525 65.109 0 105.643-29.589 128-59.691 22.357 30.101 62.891 59.691 128 59.691 68.267 0 109.504-32.512 131.115-64.064 23.125 28.16 64.427 64.064 124.885 64.064zM511.957 832c-11.776 0-21.333 9.536-21.333 21.333v85.333c0 11.797 9.557 21.333 21.333 21.333s21.333-9.536 21.333-21.333v-85.333c0-11.797-9.557-21.333-21.333-21.333zM565.291-48c-37.099 0-74.667 23.808-74.667 69.333v320c0 11.797 9.557 21.333 21.333 21.333s21.333-9.536 21.333-21.333v-320c0-25.92 28.736-26.667 32-26.667s32 0.747 32 26.667c0 11.797 9.557 21.333 21.333 21.333s21.333-9.536 21.333-21.333c0-45.525-37.568-69.333-74.667-69.333z" />
<glyph unicode="&#xe610;" d="M725.333 448c-11.776 0-21.333 9.536-21.333 21.333v256c0 105.877-86.144 192-192 192s-192-86.123-192-192v-256c0-11.797-9.557-21.333-21.333-21.333s-21.333 9.536-21.333 21.333v256c0 129.387 105.28 234.667 234.667 234.667s234.667-105.28 234.667-234.667v-256c0-11.797-9.557-21.333-21.333-21.333zM874.667-64h-725.333c-82.347 0-149.333 67.008-149.333 149.333v277.333c0 117.632 95.701 213.333 213.333 213.333h597.333c117.632 0 213.333-95.701 213.333-213.333v-277.333c0-82.325-66.987-149.333-149.333-149.333zM213.333 533.333c-94.101 0-170.667-76.565-170.667-170.667v-277.333c0-58.816 47.851-106.667 106.667-106.667h725.333c58.816 0 106.667 47.851 106.667 106.667v277.333c0 94.101-76.565 170.667-170.667 170.667h-597.333zM234.667-64c-11.776 0-21.333 9.536-21.333 21.333 0 105.877-86.144 192-192 192-11.776 0-21.333 9.536-21.333 21.333s9.557 21.333 21.333 21.333c129.387 0 234.667-105.28 234.667-234.667 0-11.797-9.557-21.333-21.333-21.333zM789.333-64c-11.776 0-21.333 9.536-21.333 21.333 0 129.387 105.28 234.667 234.667 234.667 11.776 0 21.333-9.536 21.333-21.333s-9.557-21.333-21.333-21.333c-105.856 0-192-86.123-192-192 0-11.797-9.557-21.333-21.333-21.333zM917.333 320h-810.667c-11.776 0-21.333 9.536-21.333 21.333s9.557 21.333 21.333 21.333h810.667c11.776 0 21.333-9.536 21.333-21.333s-9.557-21.333-21.333-21.333zM192 234.667c-11.776 0-21.333 9.536-21.333 21.333v85.333c0 11.797 9.557 21.333 21.333 21.333s21.333-9.536 21.333-21.333v-85.333c0-11.797-9.557-21.333-21.333-21.333z" />
<glyph unicode="&#xe611;" d="M341.333 256h318.933v-42.667h-318.933v42.667zM610.709 85.333h177.557v-42.667h-177.557v42.667zM597.333 725.333h-85.333c-11.776 0-21.333 9.536-21.333 21.333s9.557 21.333 21.333 21.333h85.333c11.776 0 21.333-9.536 21.333-21.333s-9.557-21.333-21.333-21.333zM789.333 640h-234.667c-11.776 0-21.333 9.536-21.333 21.333s9.557 21.333 21.333 21.333h234.667c11.776 0 21.333-9.536 21.333-21.333s-9.557-21.333-21.333-21.333zM768 554.667h-277.333c-11.776 0-21.333 9.536-21.333 21.333s9.557 21.333 21.333 21.333h277.333c11.776 0 21.333-9.536 21.333-21.333s-9.557-21.333-21.333-21.333zM789.333 469.333h-298.667c-11.776 0-21.333 9.536-21.333 21.333s9.557 21.333 21.333 21.333h298.667c11.776 0 21.333-9.536 21.333-21.333s-9.557-21.333-21.333-21.333zM746.667 384h-256c-11.776 0-21.333 9.536-21.333 21.333s9.557 21.333 21.333 21.333h256c11.776 0 21.333-9.536 21.333-21.333s-9.557-21.333-21.333-21.333zM768 298.667h-298.667c-11.776 0-21.333 9.536-21.333 21.333s9.557 21.333 21.333 21.333h298.667c11.776 0 21.333-9.536 21.333-21.333s-9.557-21.333-21.333-21.333zM427.733 960h532.267v-42.667h-532.267v42.667zM532.267-42.667h-532.267v42.667c17.643 0 30.379 4.181 38.933 12.821 20.288 20.416 19.947 67.904 19.648 109.781-0.341 46.805-0.64 91.051 24.171 116.011 11.477 11.541 26.688 17.387 45.248 17.387h195.712c42.987 233.941 38.997 614.507 38.955 618.411 0.491 30.016 14.72 85.589 65.067 85.589v-42.667c-20.416 0-22.4-42.581-22.4-43.029 0.192-15.936 4.267-407.531-43.093-643.84l-3.435-17.131h-230.805c-9.131 0-12.907-2.731-14.955-4.8-12.309-12.395-12.032-51.307-11.797-85.653 0.299-42.304 0.64-89.365-18.88-122.88h449.899c17.643 0 30.379 4.181 38.933 12.821 20.288 20.416 19.947 67.904 19.648 109.781-0.341 46.805-0.64 91.051 24.171 116.011 11.477 11.541 26.709 17.387 45.248 17.387 21.632 0 38.528-5.995 50.261-17.856 19.755-19.968 19.456-49.621 19.136-78.315-0.256-24.171-0.512-49.152 11.819-61.611 8.469-8.555 24.213-12.885 46.784-12.885 2.304 0 9.344 0 18.965 9.877 86.421 88.725 92.608 592.341 87.701 778.901 0.491 30.315 14.72 85.888 65.067 85.888 55.68 0 64-106.944 64-170.667v-21.333h-85.056c0.363-201.088-10.496-609.493-101.141-702.571-14.72-15.104-31.381-22.763-49.536-22.763-34.859 0-60.096 8.363-77.099 25.557-24.853 25.109-24.469 60.672-24.149 92.032 0.213 19.947 0.427 40.533-6.805 47.851-4.267 4.331-13.184 5.227-19.947 5.227-9.131 0-12.907-2.731-14.955-4.8-12.309-12.395-12.032-51.307-11.797-85.653 0.341-50.219 0.747-107.115-32.043-140.139-16.725-16.875-40.021-25.408-69.205-25.408zM938.688 810.667h42.176c-2.197 52.181-11.968 100.437-22.528 107.072-18.752-0.405-20.736-42.987-20.736-43.435 0.277-10.283 0.789-32.64 1.088-63.637z" />
<glyph unicode="&#xe612;" d="M213.333-64c-47.061 0-85.333 38.272-85.333 85.333s38.272 85.333 85.333 85.333 85.333-38.272 85.333-85.333-38.272-85.333-85.333-85.333zM213.333 64c-23.531 0-42.667-19.136-42.667-42.667s19.136-42.667 42.667-42.667 42.667 19.136 42.667 42.667-19.136 42.667-42.667 42.667zM682.667-64c-47.061 0-85.333 38.272-85.333 85.333s38.272 85.333 85.333 85.333 85.333-38.272 85.333-85.333-38.272-85.333-85.333-85.333zM682.667 64c-23.531 0-42.667-19.136-42.667-42.667s19.136-42.667 42.667-42.667 42.667 19.136 42.667 42.667-19.136 42.667-42.667 42.667zM448 618.667c-11.797 0-21.333 9.536-21.333 21.333v298.667c0 11.797 9.536 21.333 21.333 21.333s21.333-9.536 21.333-21.333v-298.667c0-11.797-9.536-21.333-21.333-21.333zM448 618.667c-5.461 0-10.923 2.091-15.083 6.251l-128 128c-8.341 8.341-8.341 21.824 0 30.165s21.824 8.341 30.165 0l112.917-112.917 112.917 112.917c8.341 8.341 21.824 8.341 30.165 0s8.341-21.824 0-30.165l-128-128c-4.16-4.16-9.621-6.251-15.083-6.251zM682.667 64h-469.333c-11.797 0-21.333 9.536-21.333 21.333s9.536 21.333 21.333 21.333h452.437l166.784 708.885c2.283 9.643 10.88 16.448 20.779 16.448h149.333c11.797 0 21.333-9.536 21.333-21.333s-9.536-21.333-21.333-21.333h-132.437l-166.784-708.885c-2.283-9.643-10.88-16.448-20.779-16.448zM704 149.333h-554.667c-9.195 0-17.323 5.867-20.224 14.592l-128 384c-2.197 6.507-1.088 13.675 2.923 19.221 4.011 5.568 10.453 8.853 17.301 8.853h768c11.797 0 21.333-9.536 21.333-21.333s-9.536-21.333-21.333-21.333h-738.389l113.771-341.333h539.285c11.797 0 21.333-9.536 21.333-21.333s-9.536-21.333-21.333-21.333z" />
<glyph unicode="&#xe613;" d="M213.333-64c-47.061 0-85.333 38.272-85.333 85.333s38.272 85.333 85.333 85.333 85.333-38.272 85.333-85.333-38.272-85.333-85.333-85.333zM213.333 64c-23.531 0-42.667-19.136-42.667-42.667s19.136-42.667 42.667-42.667 42.667 19.136 42.667 42.667-19.136 42.667-42.667 42.667zM682.667-64c-47.061 0-85.333 38.272-85.333 85.333s38.272 85.333 85.333 85.333 85.333-38.272 85.333-85.333-38.272-85.333-85.333-85.333zM682.667 64c-23.531 0-42.667-19.136-42.667-42.667s19.136-42.667 42.667-42.667 42.667 19.136 42.667 42.667-19.136 42.667-42.667 42.667zM448 618.645c-11.797 0-21.333 9.536-21.333 21.333v298.667c0 11.797 9.536 21.333 21.333 21.333s21.333-9.536 21.333-21.333v-298.667c0-11.797-9.536-21.333-21.333-21.333zM576 789.312c-5.461 0-10.923 2.091-15.083 6.251l-112.917 112.917-112.917-112.917c-8.341-8.341-21.824-8.341-30.165 0s-8.341 21.824 0 30.165l128 128c8.341 8.341 21.824 8.341 30.165 0l128-128c8.341-8.341 8.341-21.824 0-30.165-4.16-4.16-9.621-6.251-15.083-6.251zM682.667 64h-469.333c-11.797 0-21.333 9.536-21.333 21.333s9.536 21.333 21.333 21.333h452.437l166.784 708.885c2.283 9.643 10.88 16.448 20.779 16.448h149.333c11.797 0 21.333-9.536 21.333-21.333s-9.536-21.333-21.333-21.333h-132.437l-166.784-708.885c-2.283-9.643-10.88-16.448-20.779-16.448zM704 149.333h-554.667c-9.195 0-17.323 5.867-20.224 14.592l-128 384c-2.197 6.507-1.088 13.675 2.923 19.221 4.011 5.568 10.453 8.853 17.301 8.853h768c11.797 0 21.333-9.536 21.333-21.333s-9.536-21.333-21.333-21.333h-738.389l113.771-341.333h539.285c11.797 0 21.333-9.536 21.333-21.333s-9.536-21.333-21.333-21.333z" />
<glyph unicode="&#xe614;" d="M874.667-21.333c-58.816 0-106.667 47.851-106.667 106.667s47.851 106.667 106.667 106.667 106.667-47.851 106.667-106.667-47.851-106.667-106.667-106.667zM874.667 149.333c-35.285 0-64-28.715-64-64s28.715-64 64-64 64 28.715 64 64-28.715 64-64 64zM277.333-21.333h-85.333c-11.797 0-21.333 9.536-21.333 21.333v725.333c0 35.285 28.715 64 64 64s64-28.715 64-64v-725.333c0-11.797-9.536-21.333-21.333-21.333zM213.333 21.333h42.667v704c0 11.776-9.557 21.333-21.333 21.333s-21.333-9.557-21.333-21.333v-704zM576-21.333c-82.325 0-149.333 67.008-149.333 149.333s67.008 149.333 149.333 149.333 149.333-67.008 149.333-149.333-67.008-149.333-149.333-149.333zM576 234.667c-58.816 0-106.667-47.851-106.667-106.667s47.851-106.667 106.667-106.667 106.667 47.851 106.667 106.667-47.851 106.667-106.667 106.667zM768.021 341.333c-1.707 0-3.456 0.213-5.184 0.64-11.435 2.859-18.389 14.443-15.531 25.856l42.667 170.667c2.859 11.456 14.421 18.453 25.856 15.531 11.435-2.859 18.389-14.443 15.531-25.856l-42.667-170.667c-2.432-9.707-11.115-16.171-20.672-16.171zM576 384c-5.461 0-10.923 2.091-15.083 6.251l-42.667 42.667c-8.341 8.341-8.341 21.824 0 30.165s21.824 8.341 30.165 0l42.667-42.667c8.341-8.341 8.341-21.824 0-30.165-4.16-4.16-9.621-6.251-15.083-6.251zM362.667 213.333c-5.461 0-10.923 2.091-15.083 6.251-8.341 8.341-8.341 21.824 0 30.165l192 192c8.341 8.341 21.824 8.341 30.165 0s8.341-21.824 0-30.165l-192-192c-4.16-4.16-9.621-6.251-15.083-6.251zM576 234.667c-5.461 0-10.923 2.091-15.083 6.251-8.341 8.341-8.341 21.824 0 30.165l106.667 106.667c3.989 4.011 9.408 6.251 15.083 6.251h234.667c11.797 0 21.333-9.536 21.333-21.333s-9.536-21.333-21.333-21.333h-225.835l-100.416-100.416c-4.16-4.16-9.621-6.251-15.083-6.251zM277.333-21.333h-256c-11.797 0-21.333 9.536-21.333 21.333s9.536 21.333 21.333 21.333h256c11.797 0 21.333-9.536 21.333-21.333s-9.536-21.333-21.333-21.333zM192 192h-128c-11.797 0-21.333 9.536-21.333 21.333s9.536 21.333 21.333 21.333h128c11.797 0 21.333-9.536 21.333-21.333s-9.536-21.333-21.333-21.333zM686.869 85.333h105.173v-42.667h-105.173v42.667zM1002.667 42.667h-45.376v42.667h24.043v202.667l-76.8 57.6c-5.376 4.032-8.533 10.368-8.533 17.067v234.667c0 35.285-28.715 64-64 64h-85.333c-199.979 0-362.667-162.688-362.667-362.667v-213.333h81.131v-42.667h-102.464c-11.797 0-21.333 9.536-21.333 21.333v234.667c0 223.509 181.824 405.333 405.333 405.333h85.333c58.816 0 106.667-47.851 106.667-106.667v-224l76.8-57.6c5.376-4.011 8.533-10.347 8.533-17.067v-234.667c0-11.797-9.536-21.333-21.333-21.333z" />
<glyph unicode="&#xe615;" d="M165.76 343.232c-6.165 0-12.053 2.667-16.128 7.36l-139.712 161.195c-7.701 8.917-6.741 22.379 2.155 30.101 8.917 7.701 22.357 6.741 30.101-2.155l121.088-139.733 100.203 155.392c6.4 9.92 19.584 12.715 29.504 6.379 9.899-6.4 12.757-19.605 6.379-29.504l-115.669-179.264c-3.648-5.653-9.728-9.259-16.448-9.707-0.491-0.043-0.981-0.064-1.472-0.064zM997.973 290.368c-6.869 0-13.632 3.307-17.728 9.429l-103.019 153.536-118.549-141.909c-7.552-9.067-20.992-10.261-30.037-2.709s-10.24 20.992-2.709 30.037l136.768 163.755c4.288 5.163 10.645 8.192 17.493 7.637 6.677-0.363 12.864-3.861 16.576-9.408l118.869-177.131c6.571-9.792 3.968-23.040-5.803-29.611-3.648-2.453-7.765-3.627-11.861-3.627zM517.781 63.829c-99.605 0-195.925 38.827-269.013 110.912-8.405 8.277-8.469 21.781-0.213 30.165s21.781 8.469 30.165 0.213c84.352-83.157 203.413-116.48 318.485-89.323 168.277 39.765 280.341 199.083 260.693 370.581-1.344 11.712 7.061 22.293 18.752 23.616 11.819 1.472 22.293-7.040 23.616-18.752 22.101-192.981-103.957-372.224-293.227-416.981-29.717-6.997-59.627-10.432-89.259-10.432zM165.739 343.232c-9.664 0-18.411 6.613-20.736 16.427-23.616 99.84-6.933 202.859 46.933 290.133 53.888 87.275 138.56 148.331 238.379 171.947 138.048 32.555 282.069-13.141 376.128-119.36 7.808-8.832 6.976-22.315-1.835-30.123-8.811-7.765-22.293-6.976-30.123 1.835-83.605 94.443-211.733 135.125-334.336 106.112-88.747-20.949-164.011-75.243-211.904-152.811s-62.72-169.152-41.728-257.877c2.709-11.52-4.395-22.997-15.851-25.728-1.664-0.363-3.307-0.555-4.928-0.555z" />
<glyph unicode="&#xe616;" d="M512 533.333c-239.253 0-426.667 84.331-426.667 192s187.413 192 426.667 192 426.667-84.331 426.667-192-187.413-192-426.667-192zM512 874.667c-181.632 0-384-61.333-384-149.333s202.368-149.333 384-149.333 384 61.333 384 149.333-202.368 149.333-384 149.333zM512 362.667c-239.253 0-426.667 84.331-426.667 192v170.667c0 11.797 9.536 21.333 21.333 21.333s21.333-9.536 21.333-21.333v-170.667c0-88 202.368-149.333 384-149.333s384 61.333 384 149.333v170.667c0 11.797 9.536 21.333 21.333 21.333s21.333-9.536 21.333-21.333v-170.667c0-107.669-187.413-192-426.667-192zM512 170.667c-239.253 0-426.667 84.331-426.667 192v192c0 11.797 9.536 21.333 21.333 21.333s21.333-9.536 21.333-21.333v-192c0-88 202.368-149.333 384-149.333s384 61.333 384 149.333v192c0 11.797 9.536 21.333 21.333 21.333s21.333-9.536 21.333-21.333v-192c0-107.669-187.413-192-426.667-192zM512-21.333c-239.253 0-426.667 84.331-426.667 192v192c0 11.797 9.536 21.333 21.333 21.333s21.333-9.536 21.333-21.333v-192c0-88 202.368-149.333 384-149.333s384 61.333 384 149.333v192c0 11.797 9.536 21.333 21.333 21.333s21.333-9.536 21.333-21.333v-192c0-107.669-187.413-192-426.667-192z" />
<glyph unicode="&#xe617;" d="M234.731-21.333v0c-25.963 0-51.2 5.099-75.029 15.189-6.549 2.773-11.264 8.597-12.629 15.552s0.832 14.144 5.845 19.157l75.413 75.392v60.352h-60.331l-75.413-75.392c-5.013-5.013-12.16-7.253-19.157-5.845-6.955 1.344-12.8 6.080-15.552 12.629-30.656 72.448-14.571 155.115 40.96 210.645 36.203 36.224 84.373 56.171 135.616 56.171 21.056 0 41.643-3.349 61.355-10.005l311.531 311.531c-23.296 68.971-5.931 144.917 46.144 196.992 36.224 36.203 84.395 56.149 135.637 56.149 25.963 0 51.2-5.099 75.029-15.189 6.549-2.773 11.264-8.597 12.629-15.552s-0.832-14.144-5.845-19.157l-75.413-75.435v-60.352h60.352l75.392 75.413c5.013 5.013 12.117 7.253 19.157 5.845 6.955-1.344 12.8-6.080 15.552-12.629 30.656-72.448 14.571-155.115-40.96-210.645-36.203-36.203-84.373-56.149-135.616-56.149-21.056 0-41.643 3.349-61.355 10.005l-311.531-311.531c23.296-68.971 5.909-144.917-46.165-196.992-36.203-36.203-84.373-56.149-135.616-56.149zM208.341 23.637c8.64-1.536 17.451-2.304 26.389-2.304 39.851 0 77.291 15.509 105.451 43.648 43.2 43.179 55.701 107.52 31.851 163.861-3.392 8-1.579 17.259 4.565 23.403l331.008 331.008c6.165 6.144 15.445 7.979 23.403 4.565 18.539-7.829 38.187-11.819 58.389-11.819 39.851 0 77.291 15.509 105.451 43.669 35.179 35.179 50.005 84.395 41.387 131.904l-56.469-56.469c-4.011-4.011-9.429-6.251-15.083-6.251h-90.496c-11.776 0-21.333 9.536-21.333 21.333v90.496c0 5.675 2.24 11.093 6.251 15.083l56.448 56.427c-8.661 1.536-17.472 2.304-26.411 2.304-39.851 0-77.312-15.509-105.472-43.648-43.179-43.2-55.68-107.52-31.829-163.861 3.392-8 1.579-17.259-4.565-23.403l-331.029-331.008c-6.144-6.144-15.424-7.957-23.403-4.565-18.539 7.829-38.187 11.819-58.389 11.819-39.851 0-77.312-15.509-105.451-43.669-35.179-35.179-50.005-84.395-41.387-131.904l56.469 56.469c4.011 4.011 9.429 6.251 15.083 6.251h90.517c11.776 0 21.333-9.536 21.333-21.333v-90.517c0-5.675-2.24-11.093-6.251-15.083l-56.427-56.405zM896-21.333c-22.784 0-44.224 8.875-60.352 25.003l-196.096 196.117c-8.341 8.341-8.341 21.824 0 30.165l90.496 90.496c8.341 8.341 21.824 8.341 30.165 0l196.117-196.117c16.128-16.107 25.003-37.547 25.003-60.331 0-22.805-8.896-44.245-25.003-60.352-16.107-16.107-37.525-24.981-60.331-24.981zM684.821 214.869l181.013-181.035c16.107-16.107 44.203-16.128 60.331 0 8.064 8.064 12.501 18.773 12.501 30.165s-4.437 22.123-12.48 30.165l-181.035 181.035-60.331-60.331zM229.935 760.247l243.423-243.423-30.17-30.17-243.423 243.423 30.17 30.17zM609.365 148.267c-5.461 0-10.923 2.091-15.083 6.251-8.341 8.341-8.341 21.824 0 30.165l181.013 181.013c8.341 8.341 21.824 8.341 30.165 0s8.341-21.824 0-30.165l-181.013-181.013c-4.16-4.16-9.621-6.251-15.083-6.251zM184.683 693.653c-5.461 0-10.923 2.091-15.083 6.251l-120.683 120.683c-4.011 3.989-6.251 9.408-6.251 15.083s2.24 11.093 6.251 15.083l60.331 60.331c8.341 8.341 21.824 8.341 30.165 0l120.683-120.683c4.011-4.011 6.251-9.408 6.251-15.083s-2.24-11.093-6.251-15.083l-60.331-60.331c-4.16-4.181-9.621-6.251-15.083-6.251zM94.165 835.669l90.517-90.517 30.165 30.165-90.517 90.517-30.165-30.165zM563.899 426.316l156.595-156.595-30.17-30.17-156.595 156.595 30.17 30.17z" />
<glyph unicode="&#xe618;" d="M554.667-64h-85.333c-35.285 0-64 28.715-64 64v79.445c-27.307 7.893-53.589 18.795-78.528 32.576l-56.192-56.213c-24.192-24.192-66.325-24.149-90.517 0l-60.352 60.331c-12.096 12.075-18.752 28.16-18.752 45.248s6.656 33.173 18.752 45.248l56.213 56.235c-13.76 24.875-24.661 51.157-32.533 78.485h-79.424c-35.285 0-64 28.715-64 64v85.333c0 17.109 6.656 33.173 18.731 45.248 12.096 12.075 28.16 18.752 45.269 18.752h79.445c7.893 27.264 18.773 53.568 32.555 78.485l-56.192 56.213c-24.96 24.96-24.96 65.536 0 90.496l60.331 60.352c24.171 24.149 66.325 24.192 90.517 0l56.213-56.213c24.917 13.76 51.2 24.661 78.464 32.533v79.445c0 35.285 28.715 64 64 64h85.333c35.285 0 64-28.715 64-64v-79.445c27.307-7.893 53.589-18.795 78.464-32.533l56.213 56.213c24.192 24.149 66.325 24.192 90.517 0l60.352-60.331c12.096-12.075 18.752-28.16 18.752-45.248s-6.656-33.173-18.752-45.248l-56.192-56.213c13.781-24.917 24.683-51.2 32.555-78.507h79.424c35.285 0 64-28.715 64-64v-85.333c0-17.109-6.656-33.173-18.731-45.248s-28.16-18.752-45.269-18.752h-79.445c-7.893-27.307-18.795-53.611-32.555-78.507l56.192-56.213c24.96-24.96 24.96-65.536 0-90.496l-60.331-60.352c-24.192-24.171-66.325-24.171-90.517 0l-56.171 56.213c-24.917-13.781-51.221-24.661-78.485-32.555v-79.445c-0.021-35.285-28.715-64-64.021-64zM323.349 160.043c3.819 0 7.68-1.024 11.115-3.115 30.208-18.475 62.912-32.043 97.216-40.341 9.579-2.325 16.32-10.88 16.32-20.736v-95.851c0-11.776 9.579-21.333 21.333-21.333h85.333c11.755 0 21.333 9.557 21.333 21.333v95.851c0 9.856 6.741 18.411 16.32 20.736 34.261 8.299 66.965 21.824 97.195 40.32 8.448 5.141 19.243 3.84 26.219-3.115l67.797-67.819c8-7.979 22.165-8.021 30.187 0l60.331 60.352c8.32 8.32 8.32 21.845 0 30.165l-67.819 67.819c-6.976 6.955-8.256 17.813-3.115 26.219 18.453 30.165 32 62.869 40.299 97.195 2.304 9.579 10.88 16.341 20.736 16.341h95.851c5.696 0 11.072 2.219 15.104 6.251 4.011 3.968 6.229 9.323 6.229 15.040v85.333c0 11.776-9.579 21.333-21.333 21.333h-95.851c-9.856 0-18.432 6.741-20.736 16.341-8.277 34.283-21.824 66.987-40.299 97.195-5.141 8.405-3.861 19.221 3.115 26.219l67.819 67.819c3.968 3.989 6.251 9.472 6.251 15.083s-2.283 11.115-6.251 15.083l-60.352 60.331c-8.064 8.043-22.123 8.043-30.187 0l-67.819-67.819c-6.955-6.997-17.771-8.299-26.219-3.115-30.144 18.432-62.827 32-97.152 40.299-9.557 2.283-16.32 10.837-16.32 20.693v95.851c0 11.776-9.579 21.333-21.333 21.333h-85.333c-11.755 0-21.333-9.557-21.333-21.333v-95.851c0-9.856-6.741-18.411-16.32-20.736-34.261-8.277-66.965-21.824-97.195-40.299-8.427-5.141-19.243-3.861-26.197 3.115l-67.819 67.819c-8.064 8.043-22.123 8.043-30.187 0l-60.309-60.331c-8.32-8.32-8.32-21.845 0-30.165l67.819-67.819c6.976-6.955 8.256-17.813 3.115-26.219-18.475-30.208-32.021-62.912-40.299-97.173-2.304-9.579-10.88-16.341-20.736-16.341h-95.872c-5.696 0-11.072-2.219-15.104-6.251-4.011-3.989-6.229-9.344-6.229-15.061v-85.333c0-11.776 9.579-21.333 21.333-21.333h95.851c9.856 0 18.432-6.741 20.736-16.341 8.299-34.304 21.845-67.008 40.299-97.173 5.141-8.405 3.861-19.221-3.115-26.219l-67.819-67.84c-3.968-3.989-6.251-9.472-6.251-15.083s2.283-11.115 6.251-15.083l60.352-60.331c8.043-8.043 22.123-8.043 30.187 0l67.797 67.819c4.096 4.139 9.536 6.272 15.061 6.272zM512 234.667c-117.632 0-213.333 95.701-213.333 213.333s95.701 213.333 213.333 213.333 213.333-95.701 213.333-213.333-95.68-213.333-213.333-213.333zM512 618.667c-94.101 0-170.667-76.565-170.667-170.667s76.565-170.667 170.667-170.667 170.667 76.565 170.667 170.667-76.544 170.667-170.667 170.667z" />
<glyph unicode="&#xe619;" d="M938.667-64h-853.333c-47.061 0-85.333 38.272-85.333 85.333v853.333c0 47.061 38.272 85.333 85.333 85.333h853.333c47.061 0 85.333-38.272 85.333-85.333v-853.333c0-47.061-38.272-85.333-85.333-85.333zM85.333 917.333c-23.531 0-42.667-19.136-42.667-42.667v-853.333c0-23.531 19.136-42.667 42.667-42.667h853.333c23.531 0 42.667 19.136 42.667 42.667v853.333c0 23.531-19.136 42.667-42.667 42.667h-853.333zM512 320c-11.776 0-21.333 9.536-21.333 21.333v298.667c0 11.797 9.557 21.333 21.333 21.333s21.333-9.536 21.333-21.333v-298.667c0-11.797-9.557-21.333-21.333-21.333zM725.333 320c-11.776 0-21.333 9.536-21.333 21.333v85.333c0 11.797 9.557 21.333 21.333 21.333s21.333-9.536 21.333-21.333v-85.333c0-11.797-9.557-21.333-21.333-21.333zM298.667 576c-11.776 0-21.333 9.536-21.333 21.333v213.333c0 11.797 9.557 21.333 21.333 21.333s21.333-9.536 21.333-21.333v-213.333c0-11.797-9.557-21.333-21.333-21.333zM298.667 320c-11.776 0-21.333 9.536-21.333 21.333v170.667c0 11.797 9.557 21.333 21.333 21.333s21.333-9.536 21.333-21.333v-170.667c0-11.797-9.557-21.333-21.333-21.333zM725.333 490.667c-11.776 0-21.333 9.536-21.333 21.333v298.667c0 11.797 9.557 21.333 21.333 21.333s21.333-9.536 21.333-21.333v-298.667c0-11.797-9.557-21.333-21.333-21.333zM512 704c-11.776 0-21.333 9.536-21.333 21.333v85.333c0 11.797 9.557 21.333 21.333 21.333s21.333-9.536 21.333-21.333v-85.333c0-11.797-9.557-21.333-21.333-21.333zM789.333 405.333h-128c-11.776 0-21.333 9.536-21.333 21.333v85.333c0 11.797 9.557 21.333 21.333 21.333h128c11.776 0 21.333-9.536 21.333-21.333v-85.333c0-11.797-9.557-21.333-21.333-21.333zM682.667 448h85.333v42.667h-85.333v-42.667zM576 618.667h-128c-11.776 0-21.333 9.536-21.333 21.333v85.333c0 11.797 9.557 21.333 21.333 21.333h128c11.776 0 21.333-9.536 21.333-21.333v-85.333c0-11.797-9.557-21.333-21.333-21.333zM469.333 661.333h85.333v42.667h-85.333v-42.667zM362.667 490.667h-128c-11.776 0-21.333 9.536-21.333 21.333v85.333c0 11.797 9.557 21.333 21.333 21.333h128c11.776 0 21.333-9.536 21.333-21.333v-85.333c0-11.797-9.557-21.333-21.333-21.333zM256 533.333h85.333v42.667h-85.333v-42.667zM725.333 64c-47.061 0-85.333 38.272-85.333 85.333s38.272 85.333 85.333 85.333 85.333-38.272 85.333-85.333-38.272-85.333-85.333-85.333zM725.333 192c-23.531 0-42.667-19.136-42.667-42.667s19.136-42.667 42.667-42.667 42.667 19.136 42.667 42.667-19.136 42.667-42.667 42.667zM512 64c-47.061 0-85.333 38.272-85.333 85.333s38.272 85.333 85.333 85.333 85.333-38.272 85.333-85.333-38.272-85.333-85.333-85.333zM512 192c-23.531 0-42.667-19.136-42.667-42.667s19.136-42.667 42.667-42.667 42.667 19.136 42.667 42.667-19.136 42.667-42.667 42.667zM298.667 64c-47.061 0-85.333 38.272-85.333 85.333s38.272 85.333 85.333 85.333 85.333-38.272 85.333-85.333-38.272-85.333-85.333-85.333zM298.667 192c-23.531 0-42.667-19.136-42.667-42.667s19.136-42.667 42.667-42.667 42.667 19.136 42.667 42.667-19.136 42.667-42.667 42.667z" />
<glyph unicode="&#xe61a;" d="M512-64c-282.304 0-512 229.696-512 512s229.696 512 512 512 512-229.696 512-512-229.696-512-512-512zM512 917.333c-258.795 0-469.333-210.539-469.333-469.333s210.539-469.333 469.333-469.333 469.333 210.539 469.333 469.333-210.539 469.333-469.333 469.333zM512 362.667c-47.061 0-85.333 38.272-85.333 85.333s38.272 85.333 85.333 85.333 85.333-38.272 85.333-85.333-38.272-85.333-85.333-85.333zM512 490.667c-23.531 0-42.667-19.136-42.667-42.667s19.136-42.667 42.667-42.667 42.667 19.136 42.667 42.667-19.136 42.667-42.667 42.667zM557.269 471.915c-5.461 0-10.923 2.091-15.083 6.251-8.341 8.341-8.341 21.824 0 30.165l211.179 211.179c8.341 8.341 21.824 8.341 30.165 0s8.341-21.824 0-30.165l-211.179-211.179c-4.181-4.16-9.643-6.251-15.083-6.251zM192 426.667h-85.333c-11.776 0-21.333 9.536-21.333 21.333s9.557 21.333 21.333 21.333h85.333c11.776 0 21.333-9.536 21.333-21.333s-9.557-21.333-21.333-21.333zM137.536 271.552c-8.384 0-16.32 4.949-19.712 13.163-4.501 10.901 0.661 23.381 11.563 27.883l78.848 32.64c10.859 4.544 23.36-0.64 27.861-11.541 4.501-10.901-0.661-23.381-11.563-27.883l-78.848-32.64c-2.667-1.088-5.44-1.621-8.149-1.621zM886.443 271.552c-2.709 0-5.483 0.512-8.149 1.621l-78.827 32.661c-10.88 4.523-16.043 17.003-11.541 27.883 4.501 10.901 17.003 16.085 27.883 11.541l78.827-32.661c10.88-4.523 16.043-17.003 11.541-27.883-3.435-8.213-11.371-13.163-19.733-13.163zM917.312 426.645v0l-85.333 0.021c-11.776 0-21.333 9.557-21.333 21.333 0 11.797 9.557 21.333 21.333 21.333v0l85.333-0.021c11.797 0 21.333-9.557 21.333-21.333 0-11.797-9.557-21.333-21.333-21.333zM807.637 549.12c-8.384 0-16.32 4.949-19.712 13.163-4.501 10.901 0.661 23.381 11.563 27.883l78.827 32.619c10.859 4.501 23.36-0.661 27.861-11.541 4.501-10.901-0.661-23.381-11.563-27.883l-78.827-32.619c-2.667-1.088-5.419-1.621-8.149-1.621zM634.453 722.304c-2.709 0-5.483 0.512-8.149 1.621-10.88 4.523-16.043 17.003-11.541 27.883l32.661 78.805c4.501 10.88 16.981 16.043 27.883 11.541 10.88-4.523 16.043-17.003 11.541-27.883l-32.661-78.805c-3.435-8.192-11.371-13.163-19.733-13.163zM512 746.667v0c-11.797 0-21.333 9.557-21.333 21.333l0.021 85.312c0 11.797 9.557 21.333 21.333 21.333v0c11.797 0 21.333-9.557 21.333-21.333l-0.021-85.312c0-11.797-9.557-21.333-21.333-21.333zM389.547 722.304c-8.384 0-16.32 4.949-19.712 13.163l-32.619 78.827c-4.501 10.901 0.661 23.381 11.563 27.883 10.88 4.523 23.381-0.661 27.861-11.541l32.619-78.827c4.501-10.901-0.661-23.381-11.563-27.883-2.667-1.088-5.419-1.621-8.149-1.621zM285.739 652.928c-5.461 0-10.923 2.091-15.104 6.251l-60.309 60.352c-8.32 8.341-8.32 21.845 0 30.165 8.341 8.341 21.845 8.341 30.187 0l60.309-60.352c8.32-8.341 8.32-21.845 0-30.165-4.181-4.16-9.643-6.251-15.083-6.251zM216.363 549.12c-2.709 0-5.483 0.512-8.171 1.621l-78.827 32.683c-10.88 4.523-16.043 17.003-11.541 27.883s16.96 16.064 27.883 11.541l78.827-32.683c10.88-4.523 16.043-17.003 11.541-27.883-3.413-8.192-11.349-13.163-19.712-13.163zM704 106.667h-384c-11.776 0-21.333 9.536-21.333 21.333v128c0 11.797 9.557 21.333 21.333 21.333h384c11.776 0 21.333-9.536 21.333-21.333v-128c0-11.797-9.557-21.333-21.333-21.333zM341.333 149.333h341.333v85.333h-341.333v-85.333z" />
<glyph unicode="&#xe61b;" d="M896 917.333c47.061 0 85.333-38.272 85.333-85.333v-768c0-47.061-38.272-85.333-85.333-85.333h-768c-47.061 0-85.333 38.272-85.333 85.333v768c0 47.061 38.272 85.333 85.333 85.333h768M896 960h-768c-70.4 0-128-57.6-128-128v-768c0-70.4 57.6-128 128-128h768c70.4 0 128 57.6 128 128v768c0 70.4-57.6 128-128 128v0zM512 789.333c188.203 0 341.333-153.131 341.333-341.333s-153.131-341.333-341.333-341.333-341.333 153.131-341.333 341.333 153.131 341.333 341.333 341.333M512 832c-212.075 0-384-171.925-384-384s171.925-384 384-384c212.053 0 384 171.925 384 384 0 212.075-171.947 384-384 384v0zM640 426.667h-149.333v234.667c0 11.797 9.557 21.333 21.333 21.333s21.333-9.536 21.333-21.333v-192h106.667c11.776 0 21.333-9.536 21.333-21.333s-9.557-21.333-21.333-21.333z" />
<glyph unicode="&#xe61c;" d="M704-21.333c-11.797 0-21.333 9.536-21.333 21.333v234.667h21.333c105.877 0 192 86.123 192 192v106.667c0 211.733-172.267 384-384 384s-384-172.267-384-384v-106.667c0-105.877 86.123-192 192-192h21.333v-234.667c0-11.797-9.536-21.333-21.333-21.333s-21.333 9.536-21.333 21.333v192.96c-119.445 10.816-213.333 111.488-213.333 233.707v106.667c0 235.264 191.403 426.667 426.667 426.667s426.667-191.403 426.667-426.667v-106.667c0-122.219-93.888-222.891-213.333-233.707v-192.96c0-11.797-9.536-21.333-21.333-21.333zM448-21.333c-11.797 0-21.333 9.536-21.333 21.333v213.333c0 11.797 9.536 21.333 21.333 21.333s21.333-9.536 21.333-21.333v-213.333c0-11.797-9.536-21.333-21.333-21.333zM576-21.333c-11.797 0-21.333 9.536-21.333 21.333v213.333c0 11.797 9.536 21.333 21.333 21.333s21.333-9.536 21.333-21.333v-213.333c0-11.797-9.536-21.333-21.333-21.333zM704 277.333c-82.325 0-149.333 67.008-149.333 149.333s67.008 149.333 149.333 149.333 149.333-67.008 149.333-149.333-67.008-149.333-149.333-149.333zM704 533.333c-58.816 0-106.667-47.851-106.667-106.667s47.851-106.667 106.667-106.667 106.667 47.851 106.667 106.667-47.851 106.667-106.667 106.667zM320 277.333c-82.325 0-149.333 67.008-149.333 149.333s67.008 149.333 149.333 149.333 149.333-67.008 149.333-149.333-67.008-149.333-149.333-149.333zM320 533.333c-58.816 0-106.667-47.851-106.667-106.667s47.851-106.667 106.667-106.667 106.667 47.851 106.667 106.667-47.851 106.667-106.667 106.667zM111.701 576c-11.797 0-21.333 9.536-21.333 21.333s9.536 21.333 21.333 21.333c58.005 0 144.299 39.765 144.299 149.333 0 11.797 9.536 21.333 21.333 21.333s21.333-9.536 21.333-21.333c0-126.037-94.037-192-186.965-192zM912.299 576c-92.928 0-186.965 65.963-186.965 192 0 11.797 9.536 21.333 21.333 21.333s21.333-9.536 21.333-21.333c0-109.568 86.293-149.333 144.299-149.333 11.797 0 21.333-9.536 21.333-21.333s-9.557-21.333-21.333-21.333zM533.76 277.333c-0.107-0.021-0.256-0.021-0.427 0h-42.667c-7.403 0-14.251 3.84-18.155 10.133s-4.245 14.144-0.939 20.757l21.333 42.667c7.253 14.464 30.912 14.464 38.165 0l19.627-39.253c2.752-3.584 4.373-8.085 4.373-12.949 0.021-11.819-9.536-21.355-21.312-21.355z" />
<glyph unicode="&#xe61d;" d="M874.667-64h-725.333v874.667h725.333v-874.667zM192-21.333h640v789.333h-640v-789.333zM746.667 768h-469.333v170.667h469.333v-170.667zM320 810.667h384v85.333h-384v-85.333zM341.333 85.333c-11.797 0-21.333 9.536-21.333 21.333v533.333c0 11.797 9.536 21.333 21.333 21.333s21.333-9.536 21.333-21.333v-533.333c0-11.797-9.536-21.333-21.333-21.333zM512 85.333c-11.797 0-21.333 9.536-21.333 21.333v533.333c0 11.797 9.536 21.333 21.333 21.333s21.333-9.536 21.333-21.333v-533.333c0-11.797-9.536-21.333-21.333-21.333zM682.667 85.333c-11.797 0-21.333 9.536-21.333 21.333v533.333c0 11.797 9.536 21.333 21.333 21.333s21.333-9.536 21.333-21.333v-533.333c0-11.797-9.536-21.333-21.333-21.333zM0 810.667h1024v-42.667h-1024v42.667z" />
<glyph unicode="&#xe61e;" d="M554.667 320c0-23.564-19.103-42.667-42.667-42.667-23.564 0-42.667 19.103-42.667 42.667 0 23.564 19.103 42.667 42.667 42.667 23.564 0 42.667-19.103 42.667-42.667zM512 149.333c-11.797 0-21.333 9.536-21.333 21.333v128c0 11.797 9.536 21.333 21.333 21.333s21.333-9.536 21.333-21.333v-128c0-11.797-9.536-21.333-21.333-21.333zM896-64h-768v640h768v-640zM170.667-21.333h682.667v554.667h-682.667v-554.667zM768 554.667h-42.667v149.333c0 117.632-95.701 213.333-213.333 213.333s-213.333-95.701-213.333-213.333h-42.667c0 141.163 114.837 256 256 256s256-114.837 256-256v-149.333z" />
<glyph unicode="&#xe61f;" d="M554.667 320c0-23.564-19.103-42.667-42.667-42.667-23.564 0-42.667 19.103-42.667 42.667 0 23.564 19.103 42.667 42.667 42.667 23.564 0 42.667-19.103 42.667-42.667zM512 149.333c-11.797 0-21.333 9.536-21.333 21.333v128c0 11.797 9.536 21.333 21.333 21.333s21.333-9.536 21.333-21.333v-128c0-11.797-9.536-21.333-21.333-21.333zM896-64h-768v640h768v-640zM170.667-21.333h682.667v554.667h-682.667v-554.667zM768 554.667h-42.667v149.333c0 117.632-95.701 213.333-213.333 213.333s-213.333-95.701-213.333-213.333v-149.333h-42.667v149.333c0 141.163 114.837 256 256 256s256-114.837 256-256v-149.333z" />
<glyph unicode="&#xe620;" d="M300.821 57.301c-39.893 0-77.397 15.552-105.6 43.755l-30.187 30.144c-58.219 58.219-58.219 152.981 0 211.179l196.096 196.096c28.203 28.203 65.707 43.755 105.6 43.755s77.397-15.552 105.579-43.755l30.165-30.165c8.341-8.341 8.341-21.824 0-30.165s-21.824-8.341-30.165 0l-30.165 30.165c-20.139 20.139-46.933 31.253-75.413 31.253-28.501 0-55.296-11.115-75.435-31.253l-196.096-196.075c-41.579-41.579-41.579-109.248 0-150.848l30.165-30.165c20.139-20.139 46.933-31.253 75.435-31.253 28.48 0 55.275 11.115 75.413 31.253l135.787 135.765c8.341 8.341 21.824 8.341 30.165 0s8.341-21.824 0-30.165l-135.765-135.765c-28.181-28.224-65.685-43.755-105.579-43.755zM557.248 313.749c-39.872 0-77.397 15.552-105.579 43.755-8.341 8.341-8.341 21.824 0 30.165s21.824 8.341 30.165 0c20.139-20.139 46.933-31.253 75.413-31.253 28.501 0 55.296 11.115 75.435 31.253l196.096 196.096c41.579 41.579 41.579 109.248 0 150.827l-30.144 30.208c-41.579 41.579-109.269 41.579-150.848 0l-135.787-135.787c-8.341-8.341-21.824-8.341-30.165 0s-8.341 21.824 0 30.165l135.765 135.765c58.219 58.219 152.96 58.219 211.179 0l30.165-30.187c58.219-58.219 58.219-152.96 0-211.157l-196.096-196.096c-28.181-28.203-65.707-43.755-105.6-43.755z" />
<glyph unicode="&#xe621;" d="M512 661.333c-82.347 0-149.333 67.008-149.333 149.333s66.987 149.333 149.333 149.333 149.333-67.008 149.333-149.333-66.987-149.333-149.333-149.333zM512 917.333c-58.816 0-106.667-47.851-106.667-106.667s47.851-106.667 106.667-106.667 106.667 47.851 106.667 106.667-47.851 106.667-106.667 106.667zM576 149.333h-128c-11.776 0-21.333 9.536-21.333 21.333v169.963c-94.165 49.408-128 178.837-128 278.037 0 11.797 9.557 21.333 21.333 21.333h384c11.776 0 21.333-9.536 21.333-21.333 0-99.2-33.835-228.629-128-278.037v-169.963c0-11.797-9.557-21.333-21.333-21.333zM469.333 192h85.333v162.133c0 8.576 5.141 16.341 13.035 19.669 82.475 34.773 109.995 148.352 114.325 223.552h-340.053c4.331-75.179 31.851-188.779 114.325-223.552 7.893-3.349 13.035-11.093 13.035-19.669v-162.133zM512 42.667c-118.848 0-320 20.224-320 96 0 37.717 48.896 65.365 145.365 82.24 11.755 1.941 22.656-5.76 24.683-17.344s-5.739-22.656-17.323-24.683c-85.632-14.955-108.629-35.904-110.101-40.683 5.76-17.835 106.133-52.864 277.376-52.864s271.616 35.029 277.376 53.803c-1.472 3.819-24.363 24.661-109.568 39.637-11.605 2.048-19.349 13.099-17.323 24.704 2.027 11.605 12.971 19.285 24.704 17.323 96.107-16.853 144.811-44.501 144.811-82.133 0-75.776-201.152-96-320-96zM512-64c-332.544 0-512 98.923-512 192 0 101.376 174.891 160.085 338.581 181.227 11.563 1.408 22.357-6.72 23.893-18.432 1.515-11.691-6.741-22.379-18.432-23.893-197.845-25.557-301.376-89.216-301.376-138.901 0-70.635 192.747-149.333 469.333-149.333s469.333 78.699 469.333 149.333c0 49.685-103.488 113.323-301.269 138.88-11.691 1.515-19.947 12.203-18.432 23.893 1.493 11.712 12.267 19.733 23.893 18.432 163.627-21.141 338.475-79.851 338.475-181.205 0-93.077-179.456-192-512-192z" />
<glyph unicode="&#xe622;" d="M512-64c-282.304 0-512 229.696-512 512s229.696 512 512 512 512-229.696 512-512-229.696-512-512-512zM512 917.333c-258.795 0-469.333-210.539-469.333-469.333s210.539-469.333 469.333-469.333 469.333 210.539 469.333 469.333-210.539 469.333-469.333 469.333zM512 64c-188.203 0-341.333 153.131-341.333 341.333 0 11.797 9.557 21.333 21.333 21.333s21.333-9.536 21.333-21.333c0-164.693 133.973-298.667 298.667-298.667s298.667 133.973 298.667 298.667c0 11.797 9.557 21.333 21.333 21.333s21.333-9.536 21.333-21.333c0-188.203-153.131-341.333-341.333-341.333zM405.333 512c-11.776 0-21.333 9.536-21.333 21.333 0 35.285-28.715 64-64 64s-64-28.715-64-64c0-11.797-9.557-21.333-21.333-21.333s-21.333 9.536-21.333 21.333c0 58.816 47.851 106.667 106.667 106.667s106.667-47.851 106.667-106.667c0-11.797-9.557-21.333-21.333-21.333zM789.333 512c-11.776 0-21.333 9.536-21.333 21.333 0 35.285-28.715 64-64 64s-64-28.715-64-64c0-11.797-9.557-21.333-21.333-21.333s-21.333 9.536-21.333 21.333c0 58.816 47.851 106.667 106.667 106.667s106.667-47.851 106.667-106.667c0-11.797-9.557-21.333-21.333-21.333z" />
<glyph unicode="&#xe623;" d="M894.507 149.333h-765.013l-5.355 3.563c-77.739 51.627-124.139 138.027-124.139 231.104 0 152.917 124.416 277.333 277.333 277.333 44.139 0 88.064-10.645 127.019-30.763l-19.584-37.909c-33.408 17.259-69.547 26.005-107.435 26.005-129.387 0-234.667-105.28-234.667-234.667 0-76.672 37.205-147.968 99.861-192h738.944c62.656 44.032 99.861 115.328 99.861 192 0 129.387-105.28 234.667-234.667 234.667-37.931 0-74.091-8.768-107.52-26.069l-19.605 37.867c38.976 20.203 82.944 30.869 127.125 30.869 152.917 0 277.333-124.416 277.333-277.333 0-93.077-46.4-179.477-124.139-231.104l-5.355-3.563zM896-64h-768c-55.701 0-84.864 42.944-84.864 85.355 0 42.389 29.163 85.312 84.864 85.312h768c55.701 0 84.864-42.944 84.864-85.355 0-42.389-29.163-85.312-84.864-85.312zM128 64c-31.147 0-42.197-22.976-42.197-42.645 0-19.691 11.051-42.688 42.197-42.688h768c31.147 0 42.197 22.976 42.197 42.645 0 19.691-11.051 42.688-42.197 42.688h-768zM270.827 276.651c-8.768 0-16.96 5.44-20.096 14.144-10.667 29.845-16.064 61.205-16.064 93.205 0 152.917 124.416 277.333 277.333 277.333s277.333-124.416 277.333-277.333c0-31.787-5.355-62.976-15.915-92.715-3.968-11.093-16.213-16.832-27.243-12.949-11.115 3.947-16.896 16.149-12.971 27.243 8.939 25.131 13.461 51.499 13.461 78.421 0 129.387-105.28 234.667-234.667 234.667s-234.667-105.28-234.667-234.667c0-27.093 4.565-53.611 13.589-78.827 3.968-11.115-1.813-23.317-12.907-27.264-2.389-0.875-4.8-1.259-7.189-1.259zM512 704c-70.592 0-128 57.408-128 128s57.408 128 128 128 128-57.408 128-128-57.408-128-128-128zM512 917.333c-47.061 0-85.333-38.272-85.333-85.333s38.272-85.333 85.333-85.333 85.333 38.272 85.333 85.333-38.272 85.333-85.333 85.333zM618.667 810.667h-213.333c-11.776 0-21.333 9.536-21.333 21.333s9.557 21.333 21.333 21.333h213.333c11.776 0 21.333-9.536 21.333-21.333s-9.557-21.333-21.333-21.333zM512 618.667c-11.776 0-21.333 9.536-21.333 21.333v85.333c0 11.797 9.557 21.333 21.333 21.333s21.333-9.536 21.333-21.333v-85.333c0-11.797-9.557-21.333-21.333-21.333z" />
<glyph unicode="&#xe624;" d="M512-42.688c-3.691 0-7.381 0.96-10.688 2.88-5.099 2.944-126.144 73.536-249.131 187.264-167.339 154.731-252.181 307.627-252.181 454.421 0 197.867 133.952 288 258.411 288 95.979 0 203.307-54.869 253.589-175.552 50.283 120.683 157.632 175.552 253.589 175.552 124.459 0 258.411-90.133 258.411-288 0-146.795-84.843-299.691-252.181-454.421-122.987-113.728-244.032-184.341-249.131-187.264-3.307-1.92-6.997-2.88-10.688-2.88zM258.411 847.211c-103.915 0-215.744-76.779-215.744-245.333 0-295.744 398.379-554.581 469.333-598.315 70.891 43.755 469.333 302.784 469.333 598.315 0 168.555-111.829 245.333-215.744 245.333-95.424 0-204.373-65.323-232.64-211.264-1.941-10.027-10.731-17.28-20.949-17.28s-19.008 7.253-20.949 17.28c-28.267 145.92-137.216 211.264-232.64 211.264z" />
<glyph unicode="&#xe625;" d="M512.896 320c-152.427 0-276.437 143.552-276.437 320s123.989 320 276.437 320c152.427 0 276.437-143.552 276.437-320s-124.011-320-276.437-320zM512.896 917.333c-128.896 0-233.771-124.416-233.771-277.333s104.875-277.333 233.771-277.333 233.771 124.416 233.771 277.333-104.875 277.333-233.771 277.333zM1023.616-64h-1023.211v144.448c0 62.955 39.829 119.488 99.093 140.629l263.168 72.512v88.64h42.667v-121.152l-293.013-80.64c-40.811-14.656-69.269-55.019-69.269-99.989v-101.781h937.899v101.781c0 44.949-28.437 85.333-70.805 100.459l-291.477 80.171v120.256h42.667v-87.744l261.653-72.021c60.8-21.653 100.629-78.144 100.629-141.099v-144.469zM699.712 678.016c-1.451 0-2.901 0.021-4.373 0.085-48.021 1.749-104 32.128-139.563 73.195-24.875-31.701-60.395-52.096-104.363-59.563-76.907-13.205-164.864 16.32-191.616 42.283l29.717 30.635c12.885-12.523 86.080-42.539 154.752-30.848 42.624 7.232 73.344 29.141 91.307 65.088l17.835 35.648 19.776-34.603c23.616-41.344 80.277-77.589 123.733-79.189 19.328-0.512 33.067 5.269 41.835 18.283l35.392-23.829c-16.213-24.085-42.517-37.184-74.432-37.184z" />
<glyph unicode="&#xe626;" d="M682.667 362.667c-2.752 0-5.525 0.512-8.171 1.621-7.979 3.285-13.163 11.093-13.163 19.712v149.333h-64c-11.797 0-21.333 9.536-21.333 21.333s9.536 21.333 21.333 21.333h85.333c11.797 0 21.333-9.536 21.333-21.333v-119.168l134.251 134.251c3.989 4.011 9.408 6.251 15.083 6.251h128v341.333h-597.333v-149.333c0-11.797-9.536-21.333-21.333-21.333s-21.333 9.536-21.333 21.333v170.667c0 11.797 9.536 21.333 21.333 21.333h640c11.797 0 21.333-9.536 21.333-21.333v-384c0-11.797-9.536-21.333-21.333-21.333h-140.501l-164.416-164.416c-4.075-4.075-9.536-6.251-15.083-6.251zM682.667-64h-682.667v84.864c0 51.584 32.64 97.899 81.259 115.243l154.539 55.211v76.587h42.667v-106.667l-182.891-65.301c-31.637-11.307-52.907-41.472-52.907-75.072v-42.197h597.333v42.197c0 33.6-21.248 63.765-52.885 75.093l-182.891 65.301v112.448h42.667v-82.389l154.581-55.211c48.576-17.365 81.195-63.659 81.195-115.243v-84.864zM337.131 222.315c-104.619 0-189.76 100.245-189.76 223.467 0 123.179 85.12 223.424 189.76 223.424s189.76-100.224 189.76-223.424c-0.021-123.221-85.141-223.467-189.76-223.467zM337.131 626.517c-81.109 0-147.093-81.088-147.093-180.757 0-99.691 65.984-180.8 147.093-180.8s147.093 81.109 147.093 180.8c-0.021 99.669-66.005 180.757-147.093 180.757zM460.267 438.336c-40.064 0-71.893 17.003-98.944 52.8-30.165-29.077-79.829-49.856-125.248-49.856-27.605 0-51.477 5.76-75.115 18.133l19.797 37.781c17.515-9.173 34.581-13.248 55.317-13.248 41.856 0 93.291 25.515 107.925 53.547l18.069 34.603 19.371-33.899c27.968-48.981 56.021-63.701 103.232-54.656 4.715 0.896 9.024 0.939 13.205 0.939 1.429 0 2.88-0.085 4.437 0.107l5.163-42.325c-3.477-0.448-6.699-0.469-10.005-0.448-1.493 0.064-3.115 0.149-4.8-0.171-11.349-2.176-22.144-3.307-32.405-3.307zM789.333 746.667c-11.797 0-21.333-9.557-21.333-21.333s9.536-21.333 21.333-21.333c11.797 0 21.333 9.557 21.333 21.333 0 11.776-9.536 21.333-21.333 21.333v0zM682.667 746.667c-11.797 0-21.333-9.557-21.333-21.333s9.536-21.333 21.333-21.333c11.797 0 21.333 9.557 21.333 21.333 0 11.776-9.536 21.333-21.333 21.333v0zM576 746.667c-11.797 0-21.333-9.557-21.333-21.333s9.536-21.333 21.333-21.333c11.797 0 21.333 9.557 21.333 21.333 0 11.776-9.536 21.333-21.333 21.333v0z" />
<glyph unicode="&#xe627;" d="M512 208.384c-3.648 0-7.296 0.939-10.581 2.816-10.901 6.208-266.752 154.56-266.752 339.264 0 105.301 75.541 160.405 150.144 160.405 47.253 0 98.261-22.507 127.189-71.424 29.44 49.835 81.813 72.768 130.325 72.768 73.045 0 147.008-51.264 147.008-149.269 0-171.435-254.635-343.701-265.472-350.955-3.584-2.411-7.723-3.605-11.861-3.605zM384.811 668.181c-51.776 0-107.477-36.864-107.477-117.739 0-139.797 185.408-264.981 233.835-295.296 47.936 34.432 235.499 177.429 235.499 307.797 0 73.237-54.080 106.603-104.341 106.603-43.477 0-98.197-25.515-109.248-97.408-1.6-10.389-10.56-18.091-21.077-18.091v0c-10.517 0-19.477 7.68-21.077 18.091-10.901 70.891-63.979 96.043-106.112 96.043zM58.133-36.949c-5.653 0-11.179 2.219-15.296 6.464-6.336 6.528-7.851 16.32-3.797 24.448l102.827 205.248c-91.648 78.741-141.867 181.653-141.867 291.456 0 232.491 229.696 421.675 512 421.675s512-189.184 512-421.675-229.696-421.653-512-421.653c-58.453 0-115.669 8.021-170.219 23.829l-274.667-127.808c-2.859-1.344-5.952-1.984-8.981-1.984zM512 869.675c-258.795 0-469.333-170.027-469.333-379.008 0-101.781 49.429-197.397 139.2-269.205 7.851-6.293 10.24-17.237 5.76-26.219l-83.029-165.696 226.517 105.387c4.779 2.24 10.197 2.603 15.232 1.067 52.864-16.128 108.587-24.32 165.653-24.32 258.795 0 469.333 170.005 469.333 378.987s-210.539 379.008-469.333 379.008z" />
<glyph unicode="&#xe628;" d="M128-8.832v200.832h-64c-35.285 0-64 28.715-64 64v554.667c0 35.285 28.715 64 64 64h896c35.285 0 64-28.715 64-64v-554.667c0-35.285-28.715-64-64-64h-631.168l-200.832-200.832zM64 832c-11.776 0-21.333-9.557-21.333-21.333v-554.667c0-11.776 9.557-21.333 21.333-21.333h106.667v-140.501l140.501 140.501h648.832c11.776 0 21.333 9.557 21.333 21.333v554.667c0 11.776-9.557 21.333-21.333 21.333h-896zM384 533.333c0-23.564-19.103-42.667-42.667-42.667s-42.667 19.103-42.667 42.667c0 23.564 19.103 42.667 42.667 42.667 23.564 0 42.667-19.103 42.667-42.667zM725.333 533.333c0-23.564-19.103-42.667-42.667-42.667s-42.667 19.103-42.667 42.667c0 23.564 19.103 42.667 42.667 42.667 23.564 0 42.667-19.103 42.667-42.667zM554.667 533.333c0-23.564-19.103-42.667-42.667-42.667-23.564 0-42.667 19.103-42.667 42.667 0 23.564 19.103 42.667 42.667 42.667 23.564 0 42.667-19.103 42.667-42.667z" />
<glyph unicode="&#xe629;" d="M938.667 106.667h-853.333c-47.061 0-85.333 38.272-85.333 85.333v512c0 47.061 38.272 85.333 85.333 85.333h853.333c47.061 0 85.333-38.272 85.333-85.333v-512c0-47.061-38.272-85.333-85.333-85.333zM85.333 746.667c-23.531 0-42.667-19.136-42.667-42.667v-512c0-23.531 19.136-42.667 42.667-42.667h853.333c23.531 0 42.667 19.136 42.667 42.667v512c0 23.531-19.136 42.667-42.667 42.667h-853.333zM512 337.259l-374.251 242.155c-9.899 6.421-12.736 19.605-6.336 29.504s19.605 12.715 29.504 6.336l351.083-227.179 351.083 227.179c9.899 6.379 23.104 3.563 29.504-6.336s3.563-23.083-6.336-29.504l-374.251-242.155zM128.021 234.667c-6.891 0-13.675 3.328-17.771 9.493-6.549 9.813-3.904 23.040 5.909 29.589l192 128c9.813 6.549 23.061 3.904 29.589-5.909 6.549-9.813 3.904-23.040-5.909-29.589l-192-128c-3.648-2.411-7.765-3.584-11.819-3.584zM895.979 234.667c-4.053 0-8.171 1.173-11.819 3.584l-192 128c-9.813 6.549-12.459 19.776-5.909 29.589 6.528 9.813 19.755 12.459 29.589 5.909l192-128c9.813-6.549 12.459-19.776 5.909-29.589-4.096-6.165-10.88-9.493-17.771-9.493z" />
<glyph unicode="&#xe62a;" d="M490.667-64c-1.941 0-3.883 0.277-5.76 0.789-373.376 104.597-418.816 334.165-420.565 343.872-0.235 1.259-0.341 2.517-0.341 3.797v631.957c0 8.619 5.184 16.405 13.163 19.712 7.979 3.285 17.152 1.472 23.253-4.629 47.552-47.531 110.571-73.707 177.429-73.707 76.245 0 147.627 34.347 195.84 94.251 8.128 10.091 25.835 10.091 33.963 0 48.213-59.904 119.573-94.251 195.819-94.251 66.88 0 129.899 26.197 177.451 73.707 6.101 6.101 15.275 7.936 23.253 4.629s13.163-11.093 13.163-19.712v-631.957c0-1.28-0.107-2.539-0.341-3.797-1.749-9.707-47.211-239.275-420.587-343.872-1.856-0.512-3.797-0.789-5.739-0.789zM106.667 286.699c2.155-9.173 15.339-58.219 63.019-116.416 48.469-59.115 143.381-139.883 320.981-190.784 177.579 50.923 272.491 131.691 320.96 190.784 47.616 58.069 60.864 107.072 63.040 116.437v583.595c-49.643-35.861-108.992-55.189-171.2-55.189-81.003 0-157.269 33.088-212.8 91.563-55.531-58.475-131.819-91.563-212.821-91.563-62.187 0-121.536 19.328-171.179 55.189v-583.616zM576 213.333h-170.667v170.667h-170.667v170.667h170.667v170.667h170.667v-170.667h170.667v-170.667h-170.667v-170.667zM448 256h85.333v170.667h170.667v85.333h-170.667v170.667h-85.333v-170.667h-170.667v-85.333h170.667v-170.667z" />
<glyph unicode="&#xe62b;" d="M938.667-21.333h-853.333c-47.061 0-85.333 38.272-85.333 85.333v554.667c0 47.061 38.272 85.333 85.333 85.333h853.333c47.061 0 85.333-38.272 85.333-85.333v-554.667c0-47.061-38.272-85.333-85.333-85.333zM85.333 661.333c-23.531 0-42.667-19.136-42.667-42.667v-554.667c0-23.531 19.136-42.667 42.667-42.667h853.333c23.531 0 42.667 19.136 42.667 42.667v554.667c0 23.531-19.136 42.667-42.667 42.667h-853.333zM682.667 768h-42.667v42.667c0 11.776-9.579 21.333-21.333 21.333h-213.333c-11.755 0-21.333-9.557-21.333-21.333v-42.667h-42.667v42.667c0 35.285 28.715 64 64 64h213.333c35.285 0 64-28.715 64-64v-42.667zM853.333 490.667h-704c-11.776 0-21.333 9.536-21.333 21.333s9.557 21.333 21.333 21.333h704c11.776 0 21.333-9.536 21.333-21.333s-9.557-21.333-21.333-21.333zM853.333 320h-704c-11.776 0-21.333 9.536-21.333 21.333s9.557 21.333 21.333 21.333h704c11.776 0 21.333-9.536 21.333-21.333s-9.557-21.333-21.333-21.333zM853.333 149.333h-704c-11.776 0-21.333 9.536-21.333 21.333s9.557 21.333 21.333 21.333h704c11.776 0 21.333-9.536 21.333-21.333s-9.557-21.333-21.333-21.333zM341.333 768h42.667v-85.333h-42.667v85.333zM640 768h42.667v-85.333h-42.667v85.333zM362.667 789.333h298.667v-42.667h-298.667v42.667z" />
<glyph unicode="&#xe62c;" d="M678.784 725.333h-376.235c-32.384 0-62.613 14.443-82.965 39.616l-129.493 160.299c-5.163 6.4-6.208 15.189-2.667 22.613s11.029 12.139 19.243 12.139h768c8.213 0 15.701-4.736 19.243-12.139s2.517-16.213-2.667-22.613l-129.493-160.299c-20.352-25.173-50.581-39.616-82.965-39.616zM151.317 917.333l101.44-125.547c12.224-15.125 30.357-23.787 49.792-23.787h376.256c19.413 0 37.568 8.661 49.771 23.787l101.44 125.547h-678.699zM875.093-64c-0.149 0.021-0.299 0.021-0.427 0h-768c-8 0-15.317 4.459-18.965 11.563-3.648 7.125-3.029 15.659 1.6 22.165l106.667 149.333c4.011 5.611 10.475 8.939 17.365 8.939h554.667c6.891 0 13.355-3.328 17.365-8.939l104.576-146.411c4.011-3.883 6.485-9.323 6.485-15.317 0-11.797-9.557-21.333-21.333-21.333zM148.117-21.333h685.077l-76.181 106.667h-532.693l-76.203-106.667zM469.333 768h42.667v-682.667h-42.667v682.667zM85.333 960h42.667v-1024h-42.667v1024zM853.333 960h42.667v-1024h-42.667v1024z" />
<glyph unicode="&#xe62d;" d="M661.333 576h-298.667v213.333h298.667v-213.333zM405.333 618.667h213.333v128h-213.333v-128zM874.667-64h-768v1024h768v-1024zM149.333-21.333h682.667v938.667h-682.667v-938.667zM853.333 682.667h106.667v-42.667h-106.667v42.667zM853.333 512h106.667v-42.667h-106.667v42.667zM853.333 341.333h106.667v-42.667h-106.667v42.667zM896 128h-42.667v42.667h42.667c23.531 0 42.667 19.136 42.667 42.667v554.667c0 23.531-19.136 42.667-42.667 42.667h-42.667v42.667h42.667c47.061 0 85.333-38.272 85.333-85.333v-554.667c0-47.061-38.272-85.333-85.333-85.333zM64 789.333h128v-42.667h-128v42.667zM64 661.333h128v-42.667h-128v42.667zM64 533.333h128v-42.667h-128v42.667zM64 405.333h128v-42.667h-128v42.667zM64 277.333h128v-42.667h-128v42.667zM64 149.333h128v-42.667h-128v42.667z" />
<glyph unicode="&#xe62e;" d="M490.667-64h-341.333c-58.816 0-106.667 47.851-106.667 106.667v810.667c0 11.797 9.557 21.333 21.333 21.333s21.333-9.536 21.333-21.333v-810.667c0-35.285 28.715-64 64-64h341.333c11.776 0 21.333-9.536 21.333-21.333s-9.557-21.333-21.333-21.333zM874.667 469.355c-11.776 0-21.333 9.536-21.333 21.333v255.979h-704c-58.816 0-106.667 47.851-106.667 106.667s47.851 106.667 106.667 106.667h725.333c11.776 0 21.333-9.536 21.333-21.333s-9.557-21.333-21.333-21.333h-725.333c-35.285 0-64-28.715-64-64s28.715-64 64-64h746.667v-298.645c0-11.797-9.557-21.333-21.333-21.333zM725.333-64c-141.163 0-256 114.837-256 256s114.837 256 256 256 256-114.837 256-256-114.837-256-256-256zM725.333 405.333c-117.632 0-213.333-95.701-213.333-213.333s95.701-213.333 213.333-213.333 213.333 95.701 213.333 213.333-95.701 213.333-213.333 213.333zM725.333 64c-11.776 0-21.333 9.536-21.333 21.333v213.333c0 11.797 9.557 21.333 21.333 21.333s21.333-9.536 21.333-21.333v-213.333c0-11.797-9.557-21.333-21.333-21.333zM725.333 55.168l-100.416 100.416c-8.341 8.341-8.341 21.824 0 30.165s21.824 8.341 30.165 0l70.251-70.251 70.251 70.251c8.341 8.341 21.824 8.341 30.165 0s8.341-21.824 0-30.165l-100.416-100.416zM149.333 874.667h704v-42.667h-704v42.667z" />
<glyph unicode="&#xe62f;" d="M490.667-65.045c-3.136 0-6.272 0.683-9.173 2.069l-448 213.333c-7.424 3.541-12.16 11.029-12.16 19.264v661.333c0 7.317 3.755 14.123 9.941 18.048 6.165 3.904 13.952 4.352 20.565 1.216l438.827-208.96 438.827 208.981c6.613 3.115 14.357 2.688 20.544-1.237 6.208-3.925 9.963-10.731 9.963-18.048v-661.333c0-8.235-4.736-15.723-12.16-19.264l-448-213.333c-2.901-1.387-6.037-2.069-9.173-2.069zM64 183.104l426.667-203.179 426.667 203.179v614.059l-417.493-198.805c-5.781-2.752-12.544-2.752-18.325 0l-417.515 198.805v-614.059zM490.667 699.648l-371.904 177.088c-10.645 5.077-15.147 17.813-10.091 28.437 5.077 10.645 17.792 15.104 28.437 10.112l353.557-168.384 353.557 168.384c10.667 4.992 23.36 0.533 28.437-10.112 5.056-10.624 0.555-23.36-10.091-28.437l-371.904-177.088zM469.333 617.621h42.667v-661.333h-42.667v661.333z" />
<glyph unicode="&#xe630;" d="M896 874.667c-23.595 0-42.667-19.115-42.667-42.667s19.072-42.667 42.667-42.667c23.573 0 42.667 19.115 42.667 42.667s-19.093 42.667-42.667 42.667v0zM128 874.667c-23.595 0-42.667-19.115-42.667-42.667s19.072-42.667 42.667-42.667c23.573 0 42.667 19.115 42.667 42.667s-19.093 42.667-42.667 42.667v0zM896 106.667c-23.595 0-42.667-19.115-42.667-42.667s19.072-42.667 42.667-42.667c23.573 0 42.667 19.115 42.667 42.667s-19.093 42.667-42.667 42.667v0zM128 106.667c-23.595 0-42.667-19.115-42.667-42.667s19.072-42.667 42.667-42.667c23.573 0 42.667 19.115 42.667 42.667s-19.093 42.667-42.667 42.667v0zM512 341.333c-58.816 0-106.667 47.851-106.667 106.667s47.851 106.667 106.667 106.667 106.667-47.851 106.667-106.667-47.851-106.667-106.667-106.667zM512 512c-35.285 0-64-28.715-64-64s28.715-64 64-64 64 28.715 64 64-28.715 64-64 64zM512 64c-211.733 0-384 172.267-384 384s172.267 384 384 384 384-172.267 384-384-172.267-384-384-384zM512 789.333c-188.203 0-341.333-153.131-341.333-341.333s153.131-341.333 341.333-341.333 341.333 153.131 341.333 341.333-153.131 341.333-341.333 341.333zM896-64v0c-34.197 0-66.325 13.312-90.496 37.483l-65.045 65.045c-70.037-39.211-148.672-59.861-228.459-59.861s-158.421 20.651-228.459 59.861l-65.045-65.045c-24.171-24.171-56.299-37.483-90.496-37.483s-66.325 13.312-90.496 37.483c-24.192 24.192-37.504 56.32-37.504 90.517 0 34.197 13.312 66.325 37.504 90.496l65.024 65.024c-39.211 70.059-59.861 148.693-59.861 228.48s20.651 158.421 59.861 228.459l-65.024 65.024c-24.192 24.192-37.504 56.32-37.504 90.517s13.312 66.325 37.504 90.517c24.171 24.149 56.299 37.483 90.496 37.483s66.325-13.333 90.496-37.504l65.045-65.024c70.037 39.211 148.672 59.861 228.459 59.861s158.421-20.651 228.459-59.861l65.045 65.024c24.171 24.171 56.299 37.504 90.496 37.504s66.325-13.333 90.496-37.504c24.192-24.171 37.504-56.299 37.504-90.496s-13.312-66.325-37.504-90.517l-65.045-65.024c39.232-70.059 59.883-148.672 59.883-228.459s-20.651-158.4-59.883-228.459l65.045-65.024c24.192-24.192 37.504-56.32 37.504-90.517 0-34.197-13.312-66.325-37.504-90.517-24.171-24.171-56.299-37.483-90.496-37.483zM747.157 92.16l88.491-88.512c16.128-16.107 37.568-24.981 60.352-24.981s44.203 8.875 60.331 24.981c16.128 16.128 25.003 37.568 25.003 60.352 0 22.784-8.875 44.203-25.003 60.331l-88.512 88.491 8.704 14.315c40.64 66.965 62.144 143.339 62.144 220.864s-21.504 153.899-62.144 220.864l-8.704 14.315 88.512 88.491c16.128 16.107 25.003 37.547 25.003 60.331s-8.875 44.224-25.003 60.331c-16.128 16.107-37.547 25.003-60.331 25.003s-44.203-8.896-60.331-25.003l-88.512-88.491-14.336 8.704c-66.901 40.64-143.275 62.123-220.821 62.123s-153.92-21.483-220.843-62.144l-14.315-8.683-88.512 88.491c-16.128 16.107-37.547 25.003-60.331 25.003s-44.203-8.896-60.331-25.003-25.003-37.547-25.003-60.331 8.875-44.224 25.003-60.352l88.491-88.491-8.704-14.315c-40.64-66.923-62.123-143.296-62.123-220.843s21.483-153.92 62.123-220.864l8.704-14.315-88.491-88.491c-16.128-16.128-25.003-37.547-25.003-60.331s8.875-44.224 25.003-60.352c16.128-16.107 37.547-24.981 60.331-24.981s44.224 8.875 60.331 24.981l88.491 88.512 14.336-8.704c66.923-40.64 143.296-62.123 220.843-62.123s153.92 21.483 220.843 62.144l14.315 8.683z" />
<glyph unicode="&#xe631;" d="M512 149.333c-152.917 0-277.333 124.416-277.333 277.333v256c0 152.917 124.416 277.333 277.333 277.333s277.333-124.416 277.333-277.333v-256c0-152.917-124.416-277.333-277.333-277.333zM512 917.333c-129.387 0-234.667-105.28-234.667-234.667v-256c0-129.387 105.28-234.667 234.667-234.667s234.667 105.28 234.667 234.667v256c0 129.387-105.28 234.667-234.667 234.667zM512 64c-203.349 0-362.667 159.296-362.667 362.667v85.333c0 11.776 9.536 21.333 21.333 21.333s21.333-9.557 21.333-21.333v-85.333c0-179.435 140.565-320 320-320s320 140.565 320 320v85.333c0 11.776 9.536 21.333 21.333 21.333s21.333-9.557 21.333-21.333v-85.333c0-203.371-159.317-362.667-362.667-362.667zM490.667 85.333h42.667v-149.333h-42.667v149.333zM512 789.333c-11.797 0-21.333 9.557-21.333 21.333v128c0 11.776 9.536 21.333 21.333 21.333s21.333-9.557 21.333-21.333v-128c0-11.776-9.536-21.333-21.333-21.333zM597.333 789.333c-11.797 0-21.333 9.557-21.333 21.333v113.429c0 11.776 9.536 21.333 21.333 21.333s21.333-9.557 21.333-21.333v-113.429c0-11.776-9.536-21.333-21.333-21.333zM426.667 789.333c-11.797 0-21.333 9.557-21.333 21.333v113.429c0 11.776 9.536 21.333 21.333 21.333s21.333-9.557 21.333-21.333v-113.429c0-11.776-9.536-21.333-21.333-21.333zM170.667 448h682.667v-42.667h-682.667v42.667zM426.667 661.333h-170.667c-11.797 0-21.333 9.557-21.333 21.333s9.536 21.333 21.333 21.333h170.667c11.797 0 21.333-9.557 21.333-21.333s-9.536-21.333-21.333-21.333zM426.667 576h-170.667c-11.797 0-21.333 9.557-21.333 21.333s9.536 21.333 21.333 21.333h170.667c11.797 0 21.333-9.557 21.333-21.333s-9.536-21.333-21.333-21.333zM768 661.333h-170.667c-11.797 0-21.333 9.557-21.333 21.333s9.536 21.333 21.333 21.333h170.667c11.797 0 21.333-9.557 21.333-21.333s-9.536-21.333-21.333-21.333zM768 576h-170.667c-11.797 0-21.333 9.557-21.333 21.333s9.536 21.333 21.333 21.333h170.667c11.797 0 21.333-9.557 21.333-21.333s-9.536-21.333-21.333-21.333zM426.667 490.667h-170.667c-11.797 0-21.333 9.557-21.333 21.333s9.536 21.333 21.333 21.333h170.667c11.797 0 21.333-9.557 21.333-21.333s-9.536-21.333-21.333-21.333zM768 490.667h-170.667c-11.797 0-21.333 9.557-21.333 21.333s9.536 21.333 21.333 21.333h170.667c11.797 0 21.333-9.557 21.333-21.333s-9.536-21.333-21.333-21.333z" />
<glyph unicode="&#xe632;" d="M874.667 384h-42.667v64c0 176.448-143.552 320-320 320s-320-143.552-320-320v-64h-42.667v64c0 199.979 162.688 362.667 362.667 362.667s362.667-162.688 362.667-362.667v-64zM106.667 85.333c-58.816 0-106.667 47.851-106.667 106.667s47.851 106.667 106.667 106.667v-42.667c-35.285 0-64-28.715-64-64s28.715-64 64-64v-42.667zM213.333-21.333h-42.667c-47.061 0-85.333 38.272-85.333 85.333v256c0 47.061 38.272 85.333 85.333 85.333h42.667c47.061 0 85.333-38.272 85.333-85.333v-256c0-47.061-38.272-85.333-85.333-85.333zM170.667 362.667c-23.531 0-42.667-19.136-42.667-42.667v-256c0-23.531 19.136-42.667 42.667-42.667h42.667c23.531 0 42.667 19.136 42.667 42.667v256c0 23.531-19.136 42.667-42.667 42.667h-42.667zM917.333 85.333v42.667c35.285 0 64 28.715 64 64s-28.715 64-64 64v42.667c58.816 0 106.667-47.851 106.667-106.667s-47.851-106.667-106.667-106.667zM832-21.333c-58.816 0-106.667 47.851-106.667 106.667v213.333c0 58.816 47.851 106.667 106.667 106.667s106.667-47.851 106.667-106.667v-213.333c0-58.816-47.851-106.667-106.667-106.667zM832 362.667c-35.285 0-64-28.715-64-64v-213.333c0-35.285 28.715-64 64-64s64 28.715 64 64v213.333c0 35.285-28.715 64-64 64z" />
<glyph unicode="&#xe633;" d="M298.667-21.333c-70.592 0-128 57.408-128 128s57.408 128 128 128h128v-128c0-68.181-59.819-128-128-128zM298.667 192c-47.061 0-85.333-38.272-85.333-85.333s38.272-85.333 85.333-85.333c48.832 0 85.333 45.056 85.333 85.333v85.333h-85.333zM725.333 106.667c-70.592 0-128 57.408-128 128s57.408 128 128 128h128v-128c0-68.181-59.819-128-128-128zM725.333 320c-47.061 0-85.333-38.272-85.333-85.333s38.272-85.333 85.333-85.333c48.832 0 85.333 45.056 85.333 85.333v85.333h-85.333zM426.667 213.333h-42.667v526.443l469.333 187.733v-586.176h-42.667v523.157l-384-153.6zM824.137 766.401l15.834-39.62-426.73-170.536-15.834 39.62 426.73 170.536z" />
<glyph unicode="&#xe634;" d="M704 106.667h-597.333c-35.285 0-64 28.715-64 64v384c0 35.285 28.715 64 64 64h597.333c35.285 0 64-28.715 64-64v-384c0-35.285-28.715-64-64-64zM106.667 576c-11.776 0-21.333-9.579-21.333-21.333v-384c0-11.755 9.557-21.333 21.333-21.333h597.333c11.776 0 21.333 9.579 21.333 21.333v384c0 11.755-9.557 21.333-21.333 21.333h-597.333zM256 256c-47.061 0-85.333 38.272-85.333 85.333s38.272 85.333 85.333 85.333 85.333-38.272 85.333-85.333-38.272-85.333-85.333-85.333zM256 384c-23.531 0-42.667-19.136-42.667-42.667s19.136-42.667 42.667-42.667 42.667 19.136 42.667 42.667-19.136 42.667-42.667 42.667zM554.667 256c-47.061 0-85.333 38.272-85.333 85.333s38.272 85.333 85.333 85.333 85.333-38.272 85.333-85.333-38.272-85.333-85.333-85.333zM554.667 384c-23.531 0-42.667-19.136-42.667-42.667s19.136-42.667 42.667-42.667 42.667 19.136 42.667 42.667-19.136 42.667-42.667 42.667zM554.667 384h-298.667c-11.797 0-21.333 9.557-21.333 21.333s9.536 21.333 21.333 21.333h298.667c11.797 0 21.333-9.557 21.333-21.333s-9.536-21.333-21.333-21.333zM490.667 576c-11.797 0-21.333 9.557-21.333 21.333v85.333c0 11.755-9.557 21.333-21.333 21.333h-426.667c-11.797 0-21.333 9.557-21.333 21.333s9.536 21.333 21.333 21.333h426.667c35.285 0 64-28.715 64-64v-85.333c0-11.776-9.536-21.333-21.333-21.333zM661.333 576c-11.797 0-21.333 9.557-21.333 21.333v128c0 35.285 28.715 64 64 64h85.333c11.797 0 21.333-9.557 21.333-21.333s-9.536-21.333-21.333-21.333h-85.333c-11.776 0-21.333-9.579-21.333-21.333v-128c0-11.776-9.536-21.333-21.333-21.333zM960 704h-128c-35.285 0-64 28.715-64 64s28.715 64 64 64h128c35.285 0 64-28.715 64-64s-28.715-64-64-64zM832 789.333c-11.776 0-21.333-9.579-21.333-21.333s9.557-21.333 21.333-21.333h128c11.776 0 21.333 9.579 21.333 21.333s-9.557 21.333-21.333 21.333h-128zM979.691 160.811c-5.76 0-11.541 1.131-17.024 3.413l-224.213 93.419c-10.88 4.523-16.021 17.024-11.477 27.904s17.088 16 27.904 11.477l224.192-93.419 2.261 1.515v272.427l-10.475 21.205 8.213-19.691-224.192-93.419c-10.837-4.565-23.36 0.597-27.904 11.477s0.597 23.36 11.477 27.904l224.192 93.419c13.675 5.739 29.269 4.224 41.621-4.032s19.733-22.037 19.733-36.864v-272.427c0-14.827-7.381-28.608-19.712-36.864-7.403-4.928-15.979-7.445-24.597-7.445z" />
<glyph unicode="&#xe635;" d="M1024-64h-789.333v42.667h746.667v746.667h42.667zM938.667 21.333h-832v42.667h789.333v789.333h42.667zM810.667 917.333v-768h-768v768h768M853.333 960h-853.333v-853.333h853.333v853.333zM210.283 287.68l-36.587 21.952 128 213.333c3.563 5.909 9.771 9.771 16.64 10.283 6.976 0.597 13.632-2.304 18.027-7.616l88.384-106.048 154.816 232.235c4.437 6.656 12.245 10.24 20.181 9.365 7.957-0.917 14.72-6.208 17.536-13.717l128-341.333-39.957-14.976-113.365 302.336-147.563-221.333c-3.733-5.611-9.899-9.109-16.619-9.472-6.699-0.277-13.227 2.475-17.515 7.637l-87.445 104.917-112.533-187.563zM256 661.333c-47.061 0-85.333 38.272-85.333 85.333s38.272 85.333 85.333 85.333 85.333-38.272 85.333-85.333-38.272-85.333-85.333-85.333zM256 789.333c-23.531 0-42.667-19.136-42.667-42.667s19.136-42.667 42.667-42.667 42.667 19.136 42.667 42.667-19.136 42.667-42.667 42.667zM0 320h853.333v-42.667h-853.333v42.667z" />
<glyph unicode="&#xe636;" d="M313.749 688.917l-30.165 30.165 234.667 234.667c3.989 4.011 9.429 6.251 15.083 6.251 0.021 0 0.043 0 0.064 0 5.675-0.021 11.115-2.283 15.104-6.336l232-234.667-30.336-29.995-216.917 219.413-219.499-219.499zM1024-64h-1024v789.333h1024v-789.333zM42.667-21.333h938.667v704h-938.667v-704zM938.667 21.333h-853.333v618.667h853.333v-618.667zM128 64h768v533.333h-768v-533.333zM580.949 29.013c-7.147 8.576-143.424 173.867-196.949 362.667-53.525-188.821-189.781-354.091-196.949-362.667l-32.789 27.307c2.091 2.496 208.405 252.949 208.405 477.013 0 11.776 9.557 21.333 21.333 21.333s21.333-9.557 21.333-21.333c0-224.341 206.293-474.517 208.384-477.013l-32.768-27.307zM277.333 213.333h213.333v-42.667h-213.333v42.667zM810.667 42.667h-42.667v128h-42.667v-128h-42.667v149.333c0 11.776 9.557 21.333 21.333 21.333h85.333c11.776 0 21.333-9.557 21.333-21.333v-149.333zM810.667 192h-42.667v128c0 11.776 9.557 21.333 21.333 21.333h128v-42.667h-106.667v-106.667z" />
<glyph unicode="&#xe637;" d="M1024-64h-1024v1024h1024v-1024zM42.667-21.333h938.667v938.667h-938.667v-938.667zM21.333 234.667h981.333v-42.667h-981.333v42.667zM405.333 576h-128c-47.061 0-85.333 38.272-85.333 85.333 0 49.557 43.136 89.643 92.843 84.992 17.557 50.752 65.173 85.675 120.491 85.675 70.592 0 128-57.408 128-128s-57.408-128-128-128zM277.333 704c-23.531 0-42.667-19.136-42.667-42.667s19.136-42.667 42.667-42.667h128c47.061 0 85.333 38.272 85.333 85.333s-38.272 85.333-85.333 85.333c-41.941 0-77.248-30.208-83.904-71.829l-4.181-26.069-24.597 9.557c-5.141 2.005-10.283 3.008-15.317 3.008zM919.573 203.797l-150.891 301.781c-8.555 17.109-25.771 27.755-44.907 27.755-17.792 0-34.411-9.557-43.392-24.917l-128.619-220.501c-3.712-6.357-10.432-10.325-17.771-10.56-7.253-0.597-14.293 3.349-18.389 9.451-0.811 1.195-80.448 118.528-174.272 118.528-75.648 0-149.952-144.32-172.181-199.936l-39.616 15.851c9.28 23.211 94.080 226.752 211.797 226.752 85.653 0 156.501-70.997 189.653-111.019l112.533 192.939c16.576 28.437 47.339 46.080 80.235 46.080 35.413 0 67.243-19.669 83.093-51.349l150.891-301.781-38.165-19.072z" />
<glyph unicode="&#xe638;" d="M938.667 128h-136.576v42.667h136.576c23.531 0 42.667 19.136 42.667 42.667v100.992l-85.333 149.333v347.008c0 58.816-47.851 106.667-106.667 106.667h-554.667c-58.816 0-106.667-47.851-106.667-106.667v-347.008l-85.333-149.333v-100.992c0-23.531 19.136-42.667 42.667-42.667h134.507v-42.667h-134.507c-47.061 0-85.333 38.272-85.333 85.333v112.341l85.333 149.333v335.659c0 82.347 66.987 149.333 149.333 149.333h554.667c82.347 0 149.333-66.987 149.333-149.333v-335.659l85.333-149.333v-112.341c0-47.061-38.272-85.333-85.333-85.333zM976.256-64h-921.088l36.416 36.416c119.723 119.744 121.749 260.885 121.749 262.293l0.085 21.227 21.248 0.064h575.936l0.064-21.312c0-1.621 1.856-162.24 120.32-260.971l45.269-37.717zM154.667-21.333h710.379c-75.093 85.781-92.075 190.293-95.936 234.667h-514.453c-4.331-42.155-22.656-139.733-99.989-234.667zM512 556.8c-81.173 0-147.2 66.027-147.2 147.2s66.027 147.2 147.2 147.2 147.2-66.027 147.2-147.2-66.027-147.2-147.2-147.2zM512 812.8c-59.989 0-108.8-48.811-108.8-108.8s48.811-108.8 108.8-108.8 108.8 48.811 108.8 108.8-48.811 108.8-108.8 108.8zM245.333 532.011c-17.643 0-32 14.357-32 32s14.357 32 32 32 32-14.357 32-32-14.357-32-32-32zM245.333 574.677c-5.888 0-10.667-4.779-10.667-10.667s4.779-10.667 10.667-10.667 10.667 4.779 10.667 10.667-4.779 10.667-10.667 10.667zM853.333 724.011h-149.333v128h149.333v-128zM746.667 766.677h64v42.667h-64v-42.667zM448 938.667h42.667v-113.963h-42.667v113.963zM533.333 938.667h42.667v-113.963h-42.667v113.963zM448 583.317h42.667v-113.984h-42.667v113.984zM533.333 583.317h42.667v-113.984h-42.667v113.984zM106.667 490.667h810.667v-42.667h-810.667v42.667zM21.333 340.011h981.333v-42.667h-981.333v42.667zM85.333 256h853.333v-42.667h-853.333v42.667zM173.675 64h671.445v-42.667h-671.445v42.667z" />
<glyph unicode="&#xe639;" d="M704 533.333h-341.333c-58.816 0-106.667 47.851-106.667 106.667v277.333h554.667v-277.333c0-58.816-47.851-106.667-106.667-106.667zM298.667 874.667v-234.667c0-35.285 28.715-64 64-64h341.333c35.285 0 64 28.715 64 64v234.667h-469.333zM725.333-21.333h-384v469.333h384v-469.333zM384 21.333h298.667v384h-298.667v-384zM192 106.667c-58.816 0-106.667 47.851-106.667 106.667s47.851 106.667 106.667 106.667 106.667-47.851 106.667-106.667-47.851-106.667-106.667-106.667zM192 277.333c-35.285 0-64-28.715-64-64s28.715-64 64-64 64 28.715 64 64-28.715 64-64 64zM618.667 128c-8.939 0-17.259 5.653-20.245 14.592l-37.803 113.408h-54.592l-37.803-113.408c-3.733-11.157-15.787-17.28-26.987-13.483-11.179 3.733-17.216 15.808-13.483 26.987l42.667 128c2.923 8.704 11.051 14.571 20.245 14.571h85.333c9.195 0 17.323-5.867 20.245-14.592l42.667-128c3.733-11.179-2.304-23.253-13.483-26.987-2.261-0.747-4.544-1.088-6.763-1.088zM341.333 832h42.667v-213.333h-42.667v213.333zM426.667 832h42.667v-213.333h-42.667v213.333zM512 832h42.667v-213.333h-42.667v213.333zM597.333 832h42.667v-213.333h-42.667v213.333zM682.667 832h42.667v-213.333h-42.667v213.333zM384 554.667h42.667v-128h-42.667v128zM640 554.667h42.667v-128h-42.667v128zM938.667 149.333h-170.667v128h170.667v-128zM810.667 192h85.333v42.667h-85.333v-42.667zM874.667 21.333h-170.667v42.667h170.667c58.816 0 106.667 47.851 106.667 106.667v85.333c0 58.816-47.851 106.667-106.667 106.667h-170.667v42.667h170.667c82.347 0 149.333-66.987 149.333-149.333v-85.333c0-82.347-66.987-149.333-149.333-149.333zM362.667 21.333h-213.333c-82.347 0-149.333 66.987-149.333 149.333v85.333c0 82.347 66.987 149.333 149.333 149.333h213.333v-42.667h-213.333c-58.816 0-106.667-47.851-106.667-106.667v-85.333c0-58.816 47.851-106.667 106.667-106.667h213.333v-42.667z" />
<glyph unicode="&#xe63a;" d="M874.667 170.667h-725.333c-11.797 0-21.333 9.557-21.333 21.333v469.333c0 11.776 9.536 21.333 21.333 21.333h64v-42.667h-42.667v-426.667h682.667v85.333h42.667v-106.667c0-11.776-9.536-21.333-21.333-21.333zM1002.667 341.333h-725.333c-11.797 0-21.333 9.557-21.333 21.333v469.333c0 11.776 9.536 21.333 21.333 21.333h725.333c11.797 0 21.333-9.557 21.333-21.333v-469.333c0-11.776-9.536-21.333-21.333-21.333zM298.667 384h682.667v426.667h-682.667v-426.667zM746.667 0h-725.333c-11.797 0-21.333 9.557-21.333 21.333v469.333c0 11.776 9.536 21.333 21.333 21.333h64v-42.667h-42.667v-426.667h682.667v85.333h42.667v-106.667c0-11.776-9.536-21.333-21.333-21.333z" />
</font>
</defs>
</svg>
